找回密码

蓝光电影网

查看: 471|回复: 6

[喜剧] 肥龍過江 Enter.the.Fat.Dragon.2020.CHINESE.1080p.BluRay.x264-iKiW 8.56GB

[复制链接]
蓝光币
511
发表于 2020-5-1 18:05:18 | 显示全部楼层 |阅读模式
肥龍過江 Enter.the.Fat.Dragon.2020.CHINESE.1080p.BluRay.x264-iKiW 8.56GB-1.png

译  名 肥龙过江 / Enter the Fat Dragon
片  名 肥龍過江
年  代 2020
产  地 中国大陆 / 中国香港
类  别 笑剧 / 行动
语  言 粤语 / 汉语普通话 / 日语
上映日期 2020-01-23(中国香港) / 2020-02-01(中国大陆)
IMDb评分  5.6/10 from 382 users
IMDb链接  https://www.imdb.com/title/tt7335600
豆瓣评分 4.7/10 from 22099 users
豆瓣链接 https://movie.douban.com/subject/27131218/
片  长 97分钟
导  演 谷垣健治 Kenji Tanigaki
编  剧 王晶 Jing Wong / 吕冠南 Koon-Nam Lui / 陈健鸿 Ronald Kin Hung Chan
主  演 甄子丹 Donnie Yen
       毛舜筠 Teresa Mo
       周励淇 Niki Chow
       王晶 Jing Wong
       林秋楠 Qiunan Lin
       张继聪 Louis Cheung
       竹中直人 Naoto Takenaka
       丞威 Joey Tee
       渡边哲 Tetsu Watanabe
       王祖蓝 Cho-lam Wong
       詹瑞文 Sui-man Chim
       陈友 Anthony Chan
       伍允龙 Philip Ng
       林晓峰 Jerry Lamb
       周俊伟 Lawrence Chou
       林盛斌 Shing-Ban Lam
       泰臣 Tyson Chak
       叶山豪 Hayama Go
       严华 Hua Yan
       喻亢 Kang Yu
       冯勉恒 Min Hun Fung


标  签 甄子丹 | 行动 | 笑剧 | 王晶 | 香港 | 搞笑 | 香港电影 | 2020

简  介  

  香港差人朱福龙(甄子丹 饰)因一次工作失误惨被升级,万般无法之际又遭未婚妻可人(周励淇 饰)悔婚,奇迹恋爱的两重冲击令他萎靡不振,暴饮暴食六个月后体重猛增到220磅!下属黄警官不忍其继续出错,委派朱福龙前昔日本押送一位监犯,并许诺只要完成使命便可以为他规复职位。惋惜来到日本,倒霉的事务便接连在他身上发生,不但财物尽失,连监犯也在逃送途中逃走了。幸亏获得前香港差人潇洒哥(王晶 饰)的帮助才得以临时解困,为了完成使命找回监犯,朱福龙与潇洒哥配合行动,不意在查找真相的进程中发现了日本黑帮的惊天诡计......
  1. Video
  2. ID                                       : 1
  3. Format                                   : AVC
  4. Format/Info                              : Advanced Video Codec
  5. Format profile                           : [email protected]
  6. Format settings                          : CABAC / 5 Ref Frames
  7. Format settings, CABAC                   : Yes
  8. Format settings, Reference frames        : 5 frames
  9. Codec ID                                 : V_MPEG4/ISO/AVC
  10. Duration                                 : 1 h 36 min
  11. Bit rate                                 : 12.1 Mb/s
  12. Width                                    : 1 920 pixels
  13. Height                                   : 804 pixels
  14. Display aspect ratio                     : 2.40:1
  15. Frame rate mode                          : Constant
  16. Frame rate                               : 24.000 FPS
  17. Color space                              : YUV
  18. Chroma subsampling                       : 4:2:0
  19. Bit depth                                : 8 bits
  20. Scan type                                : Progressive
  21. Bits/(Pixel*Frame)                       : 0.326
  22. Stream size                              : 8.13 GiB (95%)
  23. Writing library                          : x264 core 129 r2245 bc13772
  24. Encoding settings                        : cabac=1 / ref=5 / deblock=1:-3:-3 / analyse=0x3:0x133 / me=umh / subme=11 / psy=1 / psy_rd=1.05:0.05 / mixed_ref=1 / me_range=64 / chroma_me=1 / trellis=2 / 8x8dct=1 / cqm=0 / deadzone=21,11 / fast_pskip=0 / chroma_qp_offset=-3 / threads=12 / lookahead_threads=2 / sliced_threads=0 / nr=0 / decimate=1 / interlaced=0 / bluray_compat=0 / constrained_intra=0 / bframes=10 / b_pyramid=2 / b_adapt=2 / b_bias=0 / direct=3 / weightb=1 / open_gop=0 / weightp=2 / keyint=250 / keyint_min=24 / scenecut=40 / intra_refresh=0 / rc_lookahead=60 / rc=2pass / mbtree=1 / bitrate=12067 / ratetol=1.0 / qcomp=0.60 / qpmin=0 / qpmax=69 / qpstep=4 / cplxblur=20.0 / qblur=0.5 / vbv_maxrate=40000 / vbv_bufsize=30000 / nal_hrd=none / ip_ratio=1.40 / aq=1:0.80
  25. Language                                 : English
  26. Default                                  : Yes
  27. Forced                                   : No

  28. Audio
  29. ID                                       : 2
  30. Format                                   : AC-3
  31. Format/Info                              : Audio Coding 3
  32. Commercial name                          : Dolby Digital
  33. Codec ID                                 : A_AC3
  34. Duration                                 : 1 h 36 min
  35. Bit rate mode                            : Constant
  36. Bit rate                                 : 640 kb/s
  37. Channel(s)                               : 6 channels
  38. Channel layout                           : L R C LFE Ls Rs
  39. Sampling rate                            : 48.0 kHz
  40. Frame rate                               : 31.250 FPS (1536 SPF)
  41. Bit depth                                : 16 bits
  42. Compression mode                         : Lossy
  43. Stream size                              : 442 MiB (5%)
  44. Title                                    : 粤语
  45. Language                                 : Chinese
  46. Service kind                             : Complete Main
  47. Default                                  : Yes
  48. Forced                                   : No

  49. Text #1
  50. ID                                       : 3
  51. Format                                   : UTF-8
  52. Codec ID                                 : S_TEXT/UTF8
  53. Codec ID/Info                            : UTF-8 Plain Text
  54. Duration                                 : 1 h 30 min
  55. Bit rate                                 : 63 b/s
  56. Count of elements                        : 1556
  57. Stream size                              : 42.0 KiB (0%)
  58. Language                                 : English
  59. Default                                  : Yes
  60. Forced                                   : No

  61. Text #2
  62. ID                                       : 4
  63. Format                                   : UTF-8
  64. Codec ID                                 : S_TEXT/UTF8
  65. Codec ID/Info                            : UTF-8 Plain Text
  66. Duration                                 : 1 h 30 min
  67. Bit rate                                 : 47 b/s
  68. Count of elements                        : 1543
  69. Stream size                              : 31.4 KiB (0%)
  70. Title                                    : 简体
  71. Language                                 : Chinese
  72. Default                                  : No
  73. Forced                                   : No

  74. Text #3
  75. ID                                       : 5
  76. Format                                   : UTF-8
  77. Codec ID                                 : S_TEXT/UTF8
  78. Codec ID/Info                            : UTF-8 Plain Text
  79. Duration                                 : 1 h 30 min
  80. Bit rate                                 : 47 b/s
  81. Count of elements                        : 1556
  82. Stream size                              : 31.5 KiB (0%)
  83. Title                                    : 繁体
  84. Language                                 : Chinese
  85. Default                                  : No
  86. Forced                                   : No
复制代码

肥龍過江 Enter.the.Fat.Dragon.2020.CHINESE.1080p.BluRay.x264-iKiW 8.56GB-2.png 肥龍過江 Enter.the.Fat.Dragon.2020.CHINESE.1080p.BluRay.x264-iKiW 8.56GB-3.png 肥龍過江 Enter.the.Fat.Dragon.2020.CHINESE.1080p.BluRay.x264-iKiW 8.56GB-4.png







回复

使用道具 举报

蓝光币
636
发表于 2020-5-4 17:23:43 | 显示全部楼层
谢谢楼主无私分享。
回复 支持 反对

使用道具 举报

蓝光币
70
发表于 2020-5-9 23:00:08 | 显示全部楼层
这部片子才没有打分那么烂啊
回复 支持 反对

使用道具 举报

懒得打字嘛,点击右侧快捷回复 【右侧内容,后台自定义】
您需要登录后才可以回帖 登录 | 立即加入

本版积分规则

Archiver|小黑屋| 蓝光电影网 |网站地图

Copyright © 2021 Comsenz Inc. Powered by 蓝光电影网

蓝光电影网

本站内容由用户自主分享和转载自互联网,转载目的在于传递更多信息,并不代表本网赞同其观点和对其真实性负责。

如有侵权、违反国家法律政策行为,请联系我们,我们会第一时间及时清除和处理!

举报反馈邮箱:[email protected]

快速回复 返回顶部 返回列表