找回密码

蓝光电影网

查看: 301|回复: 2

[恐怖] 快乐猎杀/欢迎来到猎杀小镇 Happy.Hunting.2017.720p.BluRay.x264-GETiT 4.37GB

[复制链接]
蓝光币
511
发表于 2020-5-1 18:16:10 | 显示全部楼层 |阅读模式
181425lneavhnehjpbpqpl.jpg

译  名 欢畅猎杀 / 接待来到猎杀小镇(台)
片  名 Happy Hunting
年  代 2017
产  地 美国
类  别 可骇
语  言 英语
上映日期 2017-09-22(美国)
IMDb评分  5.1/10 from 2220 users
IMDb链接  https://www.imdb.com/title/tt5189770
豆瓣评分 4.8/10 from 375 users
豆瓣链接 https://movie.douban.com/subject/26962622/
片  长 91分钟
导  演 Joe Dietsch, Louie Gibson
编  剧 Louie Gibson
主  演 Martin Dingle Wall
       Ken Lally
       C.J. Baker
       Gary Sturm


标  签 美国 | 惊悚 | 血腥 | 可骇 | 大逃杀 | 2017 | 美国电影 | 行动

简  介  

  一个酗酒的二逼必须跟另一帮沙漠里面脑子有病的残暴土老帽儿玩儿被猎杀的游戏,你觉着他能对峙到最初么
  五名酗酒者, 成为贝德福德平原狩猎小镇的狩猎工具, 而沃伦则是佼佼者, 他们与镇民展开了输死奋斗, 面临全部武装的镇民, 他们能否逃出升天?
  得知前女友在墨西哥過世而且留下他們的女兒,酒鬼沃倫決定當個好父親,開始戒酒並前往接回女兒。途經一座沙漠小鎮停車休息,卻在當地意外堕入昏迷;再醒來後,沃倫發現自己恰巧遇上小鎮的狩獵季節,而獵物竟是沃倫與其他搭客!除了要應付鎮民的瘋狂追殺,同時還要克服不斷襲來的戒斷症狀,沃 倫能否順利逃出沙漠,與女兒同享天倫之樂?
  1. Video
  2. ID                                       : 1
  3. Format                                   : AVC
  4. Format/Info                              : Advanced Video Codec
  5. Format profile                           : [email protected]
  6. Format settings                          : CABAC / 5 Ref Frames
  7. Format settings, CABAC                   : Yes
  8. Format settings, Reference frames        : 5 frames
  9. Codec ID                                 : V_MPEG4/ISO/AVC
  10. Duration                                 : 1 h 30 min
  11. Bit rate                                 : 5 381 kb/s
  12. Width                                    : 1 280 pixels
  13. Height                                   : 528 pixels
  14. Display aspect ratio                     : 2.40:1
  15. Frame rate mode                          : Constant
  16. Frame rate                               : 24.000 FPS
  17. Color space                              : YUV
  18. Chroma subsampling                       : 4:2:0
  19. Bit depth                                : 8 bits
  20. Scan type                                : Progressive
  21. Bits/(Pixel*Frame)                       : 0.332
  22. Stream size                              : 3.33 GiB (76%)
  23. Writing library                          : x264 core 158 r2988 7817004
  24. Encoding settings                        : cabac=1 / ref=5 / deblock=1:-2:-2 / analyse=0x3:0x113 / me=umh / subme=8 / psy=1 / psy_rd=1.00:0.00 / mixed_ref=1 / me_range=16 / chroma_me=1 / trellis=2 / 8x8dct=1 / cqm=0 / deadzone=21,11 / fast_pskip=0 / chroma_qp_offset=-2 / threads=16 / lookahead_threads=2 / sliced_threads=0 / nr=0 / decimate=1 / interlaced=0 / bluray_compat=0 / constrained_intra=0 / bframes=3 / b_pyramid=2 / b_adapt=2 / b_bias=0 / direct=3 / weightb=1 / open_gop=0 / weightp=2 / keyint=240 / keyint_min=24 / scenecut=40 / intra_refresh=0 / rc_lookahead=50 / rc=2pass / mbtree=1 / bitrate=5381 / ratetol=1.0 / qcomp=0.60 / qpmin=0 / qpmax=69 / qpstep=4 / cplxblur=20.0 / qblur=0.5 / ip_ratio=1.40 / aq=1:1.00
  25. Language                                 : English
  26. Default                                  : Yes
  27. Forced                                   : No

  28. Audio
  29. ID                                       : 2
  30. Format                                   : DTS
  31. Format/Info                              : Digital Theater Systems
  32. Codec ID                                 : A_DTS
  33. Duration                                 : 1 h 30 min
  34. Bit rate mode                            : Constant
  35. Bit rate                                 : 1 509 kb/s
  36. Channel(s)                               : 6 channels
  37. Channel layout                           : C L R Ls Rs LFE
  38. Sampling rate                            : 48.0 kHz
  39. Frame rate                               : 93.750 FPS (512 SPF)
  40. Bit depth                                : 24 bits
  41. Compression mode                         : Lossy
  42. Stream size                              : 980 MiB (22%)
  43. Language                                 : English
  44. Default                                  : Yes
  45. Forced                                   : No

  46. Menu
  47. 00:00:00.000                             : en:00:00:00.000
  48. 00:08:09.917                             : en:00:08:09.917
  49. 00:16:19.958                             : en:00:16:19.958
  50. 00:22:47.333                             : en:00:22:47.333
  51. 00:32:44.250                             : en:00:32:44.250
  52. 00:41:25.042                             : en:00:41:25.042
  53. 00:49:35.417                             : en:00:49:35.417
  54. 00:55:12.542                             : en:00:55:12.542
  55. 01:04:54.125                             : en:01:04:54.125
  56. 01:12:45.083                             : en:01:12:45.083
  57. 01:20:31.917                             : en:01:20:31.917
  58. 01:28:41.708                             : en:01:28:41.708
复制代码

欢畅猎杀/接待来到猎杀小镇 Happy.Hunting.2017.720p.BluRay.x264-GETiT 4.37GB-1.png







回复

使用道具 举报

蓝光币
3738
发表于 2020-5-2 00:01:11 | 显示全部楼层
谢谢楼主分享
回复 支持 反对

使用道具 举报

懒得打字嘛,点击右侧快捷回复 【右侧内容,后台自定义】
您需要登录后才可以回帖 登录 | 立即加入

本版积分规则

Archiver|小黑屋| 蓝光电影网 |网站地图

Copyright © 2021 Comsenz Inc. Powered by 蓝光电影网

蓝光电影网

本站内容由用户自主分享和转载自互联网,转载目的在于传递更多信息,并不代表本网赞同其观点和对其真实性负责。

如有侵权、违反国家法律政策行为,请联系我们,我们会第一时间及时清除和处理!

举报反馈邮箱:[email protected]

快速回复 返回顶部 返回列表