找回密码

蓝光电影网

查看: 371|回复: 2

[惊悚] 森林恶鬼 The.Wretched.2019.1080p.WEB-DL.DD5.1.H264-FGT 3.30GB

[复制链接]
蓝光币
511
发表于 2020-5-1 18:22:48 | 显示全部楼层 |阅读模式
森林恶鬼 The.Wretched.2019.1080p.WEB-DL.DD5.1.H264-FGT 3.30GB-1.png

译  名 森林恶鬼 / Hag
片  名 The Wretched
年  代 2019
产  地 美国
类  别 惊悚
语  言 英语
上映日期 2019-07-19(加拿大奇异电影节) / 2020-05-01(美国)
IMDb评分  6.3/10 from 266 users
IMDb链接  https://www.imdb.com/title/tt8305806
豆瓣评分 0/10 from 0 users
豆瓣链接 https://movie.douban.com/subject/30295134/
导  演 Brett Pierce / Drew T. Pierce
编  剧 Brett Pierce / Drew T. Pierce
主  演 约翰-保罗·霍华德 John-Paul Howard
       佩珀·柯达 Piper Curda
       贾米森·琼斯 Jamison Jones
       阿兹·泰思费 Azie Tesfai
       扎拉·马勒 Zarah Mahler
       Kevin Bigley
       Gabriela Quezada Bloomgarden
       理查德·伊利斯 Richard Ellis
       Blane Crockarell
       Judah Abner Paul
       Ja'layah Washington
       Amy Waller
       Ross Kidder
       Kasey Bell
       Harry Burkey
       塔格·库克尔 Tug Coker
       帕米拉·格雷 Pamela Gray


标  签 美国 | 惊悚 | 可骇 | 2020 | 美国电影 | 悬疑 | 2020s

简  介  

  A defiant teenage boy, struggling with his parent's imminent divorce, faces off with a thousand year-old witch, who is living beneath the skin of and posing as the woman next [email protected]
  1. Video
  2. ID                                       : 1
  3. Format                                   : AVC
  4. Format/Info                              : Advanced Video Codec
  5. Format profile                           : [email protected]
  6. Format settings                          : CABAC / 5 Ref Frames
  7. Format settings, CABAC                   : Yes
  8. Format settings, Reference frames        : 5 frames
  9. Codec ID                                 : V_MPEG4/ISO/AVC
  10. Duration                                 : 1 h 35 min
  11. Bit rate                                 : 4 556 kb/s
  12. Width                                    : 1 920 pixels
  13. Height                                   : 796 pixels
  14. Display aspect ratio                     : 2.40:1
  15. Frame rate mode                          : Constant
  16. Frame rate                               : 23.976 (23976/1000/189150) FPS
  17. Color space                              : YUV
  18. Chroma subsampling                       : 4:2:0
  19. Bit depth                                : 8 bits
  20. Scan type                                : Progressive
  21. Bits/(Pixel*Frame)                       : 0.124
  22. Stream size                              : 3.04 GiB (92%)
  23. Title                                    : The.Wretched.2019.1080p.WEB-DL.DD5.1.H264-FGT
  24. Language                                 : English
  25. Default                                  : Yes
  26. Forced                                   : No
  27. Color range                              : Limited
  28. Color primaries                          : BT.709
  29. Transfer characteristics                 : BT.709
  30. Matrix coefficients                      : BT.709

  31. Audio
  32. ID                                       : 2
  33. Format                                   : AC-3
  34. Format/Info                              : Audio Coding 3
  35. Commercial name                          : Dolby Digital
  36. Codec ID                                 : A_AC3
  37. Duration                                 : 1 h 35 min
  38. Bit rate mode                            : Constant
  39. Bit rate                                 : 384 kb/s
  40. Channel(s)                               : 6 channels
  41. Channel layout                           : L R C LFE Ls Rs
  42. Sampling rate                            : 48.0 kHz
  43. Frame rate                               : 31.250 FPS (1536 SPF)
  44. Bit depth                                : 16 bits
  45. Compression mode                         : Lossy
  46. Stream size                              : 263 MiB (8%)
  47. Title                                    : The.Wretched.2019.1080p.WEB-DL.DD5.1.H264-FGT
  48. Language                                 : English
  49. Service kind                             : Complete Main
  50. Default                                  : Yes
  51. Forced                                   : No

  52. Text
  53. ID                                       : 3
  54. Format                                   : UTF-8
  55. Codec ID                                 : S_TEXT/UTF8
  56. Codec ID/Info                            : UTF-8 Plain Text
  57. Duration                                 : 1 h 29 min
  58. Bit rate                                 : 33 b/s
  59. Count of elements                        : 836
  60. Stream size                              : 21.8 KiB (0%)
  61. Language                                 : English
  62. Default                                  : Yes
  63. Forced                                   : No

  64. Menu
  65. 00:00:00.000                             : en:1
  66. 00:12:26.413                             : en:2
  67. 00:25:00.666                             : en:3
  68. 00:38:03.573                             : en:4
  69. 00:50:03.584                             : en:5
  70. 01:00:55.027                             : en:6
  71. 01:11:01.757                             : en:7
  72. 01:20:01.963                             : en:8
  73. 01:31:02.081                             : en:9
复制代码

森林恶鬼 The.Wretched.2019.1080p.WEB-DL.DD5.1.H264-FGT 3.30GB-2.png 森林恶鬼 The.Wretched.2019.1080p.WEB-DL.DD5.1.H264-FGT 3.30GB-3.png 森林恶鬼 The.Wretched.2019.1080p.WEB-DL.DD5.1.H264-FGT 3.30GB-4.png







回复

使用道具 举报

懒得打字嘛,点击右侧快捷回复 【右侧内容,后台自定义】
您需要登录后才可以回帖 登录 | 立即加入

本版积分规则

Archiver|小黑屋| 蓝光电影网 |网站地图

Copyright © 2021 Comsenz Inc. Powered by 蓝光电影网

蓝光电影网

本站内容由用户自主分享和转载自互联网,转载目的在于传递更多信息,并不代表本网赞同其观点和对其真实性负责。

如有侵权、违反国家法律政策行为,请联系我们,我们会第一时间及时清除和处理!

举报反馈邮箱:[email protected]

快速回复 返回顶部 返回列表