找回密码

蓝光电影网

查看: 233|回复: 2

[喜剧] 校园情圣/一半一半 The.Half.Of.It.2020.1080p.NF.WEBRip.DDP5.1.Atmos.x264-NTG 3.35GB

[复制链接]
蓝光币
511
发表于 2020-5-1 18:39:56 | 显示全部楼层 |阅读模式
校园情圣/一半一半 The.Half.Of.It.2020.1080p.NF.WEBRip.DDP5.1.Atmos.x264-NTG 3.35GB-1.png

译  名 校园情圣 / 一半一半 / 至心半解(港) / 青春未知数(台)
片  名 The Half of It
年  代 2020
产  地 美国
类  别 笑剧 / 恋爱 / 同性
语  言 英语
上映日期 2020-05-01(美国)
IMDb评分  7.2/10 from 16 users
IMDb链接  https://www.imdb.com/title/tt9683478
豆瓣评分 0/10 from 0 users
豆瓣链接 https://movie.douban.com/subject/33420285/
片  长 104分钟
导  演 伍思薇 Alice Wu
编  剧 伍思薇 Alice Wu
主  演 利·刘易斯 Leah Lewis
       沃尔夫冈·诺沃格拉茨 Wolfgang Novogratz
       亚历克西斯·勒梅尔 Alexxis Lemire
       恩里克·穆西安诺 Enrique Murciano
       贝琦·安·贝克 Becky Ann Baker
       邹兆龙 Collin Chou
       凯瑟琳·科廷 Catherine Curtin
       丹尼尔·迪默 Daniel Diemer
       亚历山卓·巴格特 Alexandre Bagot
       乔纳·福尔肯 Jonah Falcon
       Haley Murphy
       Mehmet Ozyagci
       Alex D. Jennings
       Jim Cleary
       Billy Thomas Myott
       Joe Lanza
       Michael DeBarge


标  签 Netflix | LGBT | 青春 | 校园 | 美国 | 同性 | 恋爱 | 电影

简  介  

  本性关心的活动健将保罗爱上了黉舍校花,但他实在不善言辞,因而决议僱用外向的高材生艾莉帮他展开追求,绝不相关的两人也是以成为朋友。但是,艾莉发现自己居然也对校花发生好感,她和保罗的友谊是以变得複杂。本片为编剧兼导演伍思薇的最新力作。
  1. Video
  2. ID                                       : 1
  3. Format                                   : AVC
  4. Format/Info                              : Advanced Video Codec
  5. Format profile                           : [email protected]
  6. Format settings                          : CABAC / 3 Ref Frames
  7. Format settings, CABAC                   : Yes
  8. Format settings, Reference frames        : 3 frames
  9. Codec ID                                 : V_MPEG4/ISO/AVC
  10. Duration                                 : 1 h 45 min
  11. Bit rate mode                            : Variable
  12. Bit rate                                 : 3 830 kb/s
  13. Maximum bit rate                         : 5 745 kb/s
  14. Width                                    : 1 920 pixels
  15. Height                                   : 1 080 pixels
  16. Display aspect ratio                     : 16:9
  17. Frame rate mode                          : Constant
  18. Frame rate                               : 24.000 FPS
  19. Color space                              : YUV
  20. Chroma subsampling                       : 4:2:0
  21. Bit depth                                : 8 bits
  22. Scan type                                : Progressive
  23. Bits/(Pixel*Frame)                       : 0.077
  24. Stream size                              : 2.78 GiB (83%)
  25. Writing library                          : x264 core 148 r2717 0d2410d
  26. Encoding settings                        : cabac=1 / ref=3 / deblock=1:0:0 / analyse=0x1:0x111 / me=umh / subme=10 / psy=1 / psy_rd=1.00:0.00 / mixed_ref=1 / me_range=24 / chroma_me=1 / trellis=2 / 8x8dct=0 / cqm=0 / deadzone=21,11 / fast_pskip=1 / chroma_qp_offset=-2 / threads=8 / lookahead_threads=1 / sliced_threads=0 / nr=0 / decimate=1 / interlaced=0 / bluray_compat=0 / stitchable=1 / constrained_intra=0 / bframes=2 / b_pyramid=0 / b_adapt=2 / b_bias=0 / direct=3 / weightb=1 / open_gop=0 / weightp=2 / keyint=250 / keyint_min=24 / scenecut=0 / intra_refresh=0 / rc_lookahead=48 / rc=2pass / mbtree=1 / bitrate=3830 / ratetol=1.0 / qcomp=0.50 / qpmin=6 / qpmax=51 / qpstep=4 / cplxblur=20.0 / qblur=0.5 / vbv_maxrate=5745 / vbv_bufsize=7660 / nal_hrd=vbr / filler=0 / ip_ratio=1.40 / aq=1:1.00
  27. Default                                  : Yes
  28. Forced                                   : No

  29. Audio
  30. ID                                       : 2
  31. Format                                   : E-AC-3 JOC
  32. Format/Info                              : Enhanced AC-3 with Joint Object Coding
  33. Commercial name                          : Dolby Digital Plus with Dolby Atmos
  34. Codec ID                                 : A_EAC3
  35. Duration                                 : 1 h 45 min
  36. Bit rate mode                            : Constant
  37. Bit rate                                 : 768 kb/s
  38. Channel(s)                               : 6 channels
  39. Channel layout                           : L R C LFE Ls Rs
  40. Sampling rate                            : 48.0 kHz
  41. Frame rate                               : 31.250 FPS (1536 SPF)
  42. Compression mode                         : Lossy
  43. Stream size                              : 578 MiB (17%)
  44. Title                                    : English
  45. Language                                 : English
  46. Service kind                             : Complete Main
  47. Default                                  : Yes
  48. Forced                                   : No
  49. Complexity index                         : 16
  50. Number of dynamic objects                : 15
  51. Bed channel count                        : 1 channel
  52. Bed channel configuration                : LFE

  53. Text #1
  54. ID                                       : 3
  55. Format                                   : UTF-8
  56. Codec ID                                 : S_TEXT/UTF8
  57. Codec ID/Info                            : UTF-8 Plain Text
  58. Duration                                 : 1 h 23 min
  59. Bit rate                                 : 1 b/s
  60. Count of elements                        : 29
  61. Stream size                              : 686 Bytes (0%)
  62. Title                                    : Forced
  63. Language                                 : English
  64. Default                                  : Yes
  65. Forced                                   : Yes

  66. Text #2
  67. ID                                       : 4
  68. Format                                   : UTF-8
  69. Codec ID                                 : S_TEXT/UTF8
  70. Codec ID/Info                            : UTF-8 Plain Text
  71. Duration                                 : 1 h 42 min
  72. Bit rate                                 : 52 b/s
  73. Count of elements                        : 1327
  74. Stream size                              : 39.2 KiB (0%)
  75. Language                                 : English
  76. Default                                  : No
  77. Forced                                   : No

  78. Text #3
  79. ID                                       : 5
  80. Format                                   : UTF-8
  81. Codec ID                                 : S_TEXT/UTF8
  82. Codec ID/Info                            : UTF-8 Plain Text
  83. Duration                                 : 1 h 42 min
  84. Bit rate                                 : 62 b/s
  85. Count of elements                        : 1533
  86. Stream size                              : 46.9 KiB (0%)
  87. Title                                    : SDH
  88. Language                                 : English
  89. Default                                  : No
  90. Forced                                   : No

  91. Text #4
  92. ID                                       : 6
  93. Format                                   : UTF-8
  94. Codec ID                                 : S_TEXT/UTF8
  95. Codec ID/Info                            : UTF-8 Plain Text
  96. Duration                                 : 1 h 43 min
  97. Bit rate                                 : 81 b/s
  98. Count of elements                        : 1131
  99. Stream size                              : 61.6 KiB (0%)
  100. Language                                 : Arabic
  101. Default                                  : No
  102. Forced                                   : No

  103. Text #5
  104. ID                                       : 7
  105. Format                                   : UTF-8
  106. Codec ID                                 : S_TEXT/UTF8
  107. Codec ID/Info                            : UTF-8 Plain Text
  108. Duration                                 : 1 h 43 min
  109. Bit rate                                 : 44 b/s
  110. Count of elements                        : 1199
  111. Stream size                              : 33.7 KiB (0%)
  112. Language                                 : Czech
  113. Default                                  : No
  114. Forced                                   : No

  115. Text #6
  116. ID                                       : 8
  117. Format                                   : UTF-8
  118. Codec ID                                 : S_TEXT/UTF8
  119. Codec ID/Info                            : UTF-8 Plain Text
  120. Duration                                 : 1 h 43 min
  121. Bit rate                                 : 40 b/s
  122. Count of elements                        : 1270
  123. Stream size                              : 30.4 KiB (0%)
  124. Language                                 : Danish
  125. Default                                  : No
  126. Forced                                   : No

  127. Text #7
  128. ID                                       : 9
  129. Format                                   : UTF-8
  130. Codec ID                                 : S_TEXT/UTF8
  131. Codec ID/Info                            : UTF-8 Plain Text
  132. Duration                                 : 1 h 43 min
  133. Bit rate                                 : 47 b/s
  134. Count of elements                        : 1164
  135. Stream size                              : 36.2 KiB (0%)
  136. Language                                 : German
  137. Default                                  : No
  138. Forced                                   : No

  139. Text #8
  140. ID                                       : 10
  141. Format                                   : UTF-8
  142. Codec ID                                 : S_TEXT/UTF8
  143. Codec ID/Info                            : UTF-8 Plain Text
  144. Duration                                 : 1 h 43 min
  145. Bit rate                                 : 74 b/s
  146. Count of elements                        : 1237
  147. Stream size                              : 56.4 KiB (0%)
  148. Language                                 : Greek
  149. Default                                  : No
  150. Forced                                   : No

  151. Text #9
  152. ID                                       : 11
  153. Format                                   : UTF-8
  154. Codec ID                                 : S_TEXT/UTF8
  155. Codec ID/Info                            : UTF-8 Plain Text
  156. Duration                                 : 1 h 43 min
  157. Bit rate                                 : 43 b/s
  158. Count of elements                        : 1238
  159. Stream size                              : 33.3 KiB (0%)
  160. Language                                 : Spanish
  161. Default                                  : No
  162. Forced                                   : No

  163. Text #10
  164. ID                                       : 12
  165. Format                                   : UTF-8
  166. Codec ID                                 : S_TEXT/UTF8
  167. Codec ID/Info                            : UTF-8 Plain Text
  168. Duration                                 : 1 h 43 min
  169. Bit rate                                 : 42 b/s
  170. Count of elements                        : 1261
  171. Stream size                              : 32.5 KiB (0%)
  172. Title                                    : European
  173. Language                                 : Spanish
  174. Default                                  : No
  175. Forced                                   : No

  176. Text #11
  177. ID                                       : 13
  178. Format                                   : UTF-8
  179. Codec ID                                 : S_TEXT/UTF8
  180. Codec ID/Info                            : UTF-8 Plain Text
  181. Duration                                 : 1 h 43 min
  182. Bit rate                                 : 39 b/s
  183. Count of elements                        : 1154
  184. Stream size                              : 30.2 KiB (0%)
  185. Language                                 : Finnish
  186. Default                                  : No
  187. Forced                                   : No

  188. Text #12
  189. ID                                       : 14
  190. Format                                   : UTF-8
  191. Codec ID                                 : S_TEXT/UTF8
  192. Codec ID/Info                            : UTF-8 Plain Text
  193. Duration                                 : 1 h 43 min
  194. Bit rate                                 : 39 b/s
  195. Count of elements                        : 1206
  196. Stream size                              : 30.0 KiB (0%)
  197. Language                                 : French
  198. Default                                  : No
  199. Forced                                   : No

  200. Text #13
  201. ID                                       : 15
  202. Format                                   : UTF-8
  203. Codec ID                                 : S_TEXT/UTF8
  204. Codec ID/Info                            : UTF-8 Plain Text
  205. Duration                                 : 1 h 43 min
  206. Bit rate                                 : 72 b/s
  207. Count of elements                        : 1250
  208. Stream size                              : 55.3 KiB (0%)
  209. Language                                 : Hebrew
  210. Default                                  : No
  211. Forced                                   : No

  212. Text #14
  213. ID                                       : 16
  214. Format                                   : UTF-8
  215. Codec ID                                 : S_TEXT/UTF8
  216. Codec ID/Info                            : UTF-8 Plain Text
  217. Duration                                 : 1 h 43 min
  218. Bit rate                                 : 41 b/s
  219. Count of elements                        : 1188
  220. Stream size                              : 31.7 KiB (0%)
  221. Language                                 : Hungarian
  222. Default                                  : No
  223. Forced                                   : No

  224. Text #15
  225. ID                                       : 17
  226. Format                                   : UTF-8
  227. Codec ID                                 : S_TEXT/UTF8
  228. Codec ID/Info                            : UTF-8 Plain Text
  229. Duration                                 : 1 h 43 min
  230. Bit rate                                 : 45 b/s
  231. Count of elements                        : 1254
  232. Stream size                              : 34.9 KiB (0%)
  233. Language                                 : Indonesian
  234. Default                                  : No
  235. Forced                                   : No

  236. Text #16
  237. ID                                       : 18
  238. Format                                   : UTF-8
  239. Codec ID                                 : S_TEXT/UTF8
  240. Codec ID/Info                            : UTF-8 Plain Text
  241. Duration                                 : 1 h 43 min
  242. Bit rate                                 : 43 b/s
  243. Count of elements                        : 1225
  244. Stream size                              : 33.3 KiB (0%)
  245. Language                                 : Italian
  246. Default                                  : No
  247. Forced                                   : No

  248. Text #17
  249. ID                                       : 19
  250. Format                                   : UTF-8
  251. Codec ID                                 : S_TEXT/UTF8
  252. Codec ID/Info                            : UTF-8 Plain Text
  253. Duration                                 : 1 h 43 min
  254. Bit rate                                 : 47 b/s
  255. Count of elements                        : 1285
  256. Stream size                              : 36.2 KiB (0%)
  257. Language                                 : Japanese
  258. Default                                  : No
  259. Forced                                   : No

  260. Text #18
  261. ID                                       : 20
  262. Format                                   : UTF-8
  263. Codec ID                                 : S_TEXT/UTF8
  264. Codec ID/Info                            : UTF-8 Plain Text
  265. Duration                                 : 1 h 43 min
  266. Bit rate                                 : 55 b/s
  267. Count of elements                        : 1275
  268. Stream size                              : 42.3 KiB (0%)
  269. Language                                 : Korean
  270. Default                                  : No
  271. Forced                                   : No

  272. Text #19
  273. ID                                       : 21
  274. Format                                   : UTF-8
  275. Codec ID                                 : S_TEXT/UTF8
  276. Codec ID/Info                            : UTF-8 Plain Text
  277. Duration                                 : 1 h 43 min
  278. Bit rate                                 : 42 b/s
  279. Count of elements                        : 1182
  280. Stream size                              : 32.2 KiB (0%)
  281. Language                                 : Norwegian Bokmal
  282. Default                                  : No
  283. Forced                                   : No

  284. Text #20
  285. ID                                       : 22
  286. Format                                   : UTF-8
  287. Codec ID                                 : S_TEXT/UTF8
  288. Codec ID/Info                            : UTF-8 Plain Text
  289. Duration                                 : 1 h 43 min
  290. Bit rate                                 : 36 b/s
  291. Count of elements                        : 1089
  292. Stream size                              : 27.8 KiB (0%)
  293. Language                                 : Dutch
  294. Default                                  : No
  295. Forced                                   : No

  296. Text #21
  297. ID                                       : 23
  298. Format                                   : UTF-8
  299. Codec ID                                 : S_TEXT/UTF8
  300. Codec ID/Info                            : UTF-8 Plain Text
  301. Duration                                 : 1 h 43 min
  302. Bit rate                                 : 39 b/s
  303. Count of elements                        : 1167
  304. Stream size                              : 30.2 KiB (0%)
  305. Language                                 : Polish
  306. Default                                  : No
  307. Forced                                   : No

  308. Text #22
  309. ID                                       : 24
  310. Format                                   : UTF-8
  311. Codec ID                                 : S_TEXT/UTF8
  312. Codec ID/Info                            : UTF-8 Plain Text
  313. Duration                                 : 1 h 43 min
  314. Bit rate                                 : 44 b/s
  315. Count of elements                        : 1218
  316. Stream size                              : 33.4 KiB (0%)
  317. Language                                 : Portuguese
  318. Default                                  : No
  319. Forced                                   : No

  320. Text #23
  321. ID                                       : 25
  322. Format                                   : UTF-8
  323. Codec ID                                 : S_TEXT/UTF8
  324. Codec ID/Info                            : UTF-8 Plain Text
  325. Duration                                 : 1 h 43 min
  326. Bit rate                                 : 42 b/s
  327. Count of elements                        : 1209
  328. Stream size                              : 32.6 KiB (0%)
  329. Title                                    : Brazilian
  330. Language                                 : Portuguese
  331. Default                                  : No
  332. Forced                                   : No

  333. Text #24
  334. ID                                       : 26
  335. Format                                   : UTF-8
  336. Codec ID                                 : S_TEXT/UTF8
  337. Codec ID/Info                            : UTF-8 Plain Text
  338. Duration                                 : 1 h 43 min
  339. Bit rate                                 : 49 b/s
  340. Count of elements                        : 1260
  341. Stream size                              : 37.4 KiB (0%)
  342. Language                                 : Romanian
  343. Default                                  : No
  344. Forced                                   : No

  345. Text #25
  346. ID                                       : 27
  347. Format                                   : UTF-8
  348. Codec ID                                 : S_TEXT/UTF8
  349. Codec ID/Info                            : UTF-8 Plain Text
  350. Duration                                 : 1 h 43 min
  351. Bit rate                                 : 71 b/s
  352. Count of elements                        : 1258
  353. Stream size                              : 54.4 KiB (0%)
  354. Language                                 : Russian
  355. Default                                  : No
  356. Forced                                   : No

  357. Text #26
  358. ID                                       : 28
  359. Format                                   : UTF-8
  360. Codec ID                                 : S_TEXT/UTF8
  361. Codec ID/Info                            : UTF-8 Plain Text
  362. Duration                                 : 1 h 43 min
  363. Bit rate                                 : 43 b/s
  364. Count of elements                        : 1049
  365. Stream size                              : 33.1 KiB (0%)
  366. Language                                 : Swedish
  367. Default                                  : No
  368. Forced                                   : No

  369. Text #27
  370. ID                                       : 29
  371. Format                                   : UTF-8
  372. Codec ID                                 : S_TEXT/UTF8
  373. Codec ID/Info                            : UTF-8 Plain Text
  374. Duration                                 : 1 h 43 min
  375. Bit rate                                 : 120 b/s
  376. Count of elements                        : 1291
  377. Stream size                              : 91.3 KiB (0%)
  378. Language                                 : Thai
  379. Default                                  : No
  380. Forced                                   : No

  381. Text #28
  382. ID                                       : 30
  383. Format                                   : UTF-8
  384. Codec ID                                 : S_TEXT/UTF8
  385. Codec ID/Info                            : UTF-8 Plain Text
  386. Duration                                 : 1 h 43 min
  387. Bit rate                                 : 46 b/s
  388. Count of elements                        : 1233
  389. Stream size                              : 35.6 KiB (0%)
  390. Language                                 : Turkish
  391. Default                                  : No
  392. Forced                                   : No

  393. Text #29
  394. ID                                       : 31
  395. Format                                   : UTF-8
  396. Codec ID                                 : S_TEXT/UTF8
  397. Codec ID/Info                            : UTF-8 Plain Text
  398. Duration                                 : 1 h 43 min
  399. Bit rate                                 : 61 b/s
  400. Count of elements                        : 1270
  401. Stream size                              : 46.9 KiB (0%)
  402. Language                                 : Vietnamese
  403. Default                                  : No
  404. Forced                                   : No

  405. Text #30
  406. ID                                       : 32
  407. Format                                   : UTF-8
  408. Codec ID                                 : S_TEXT/UTF8
  409. Codec ID/Info                            : UTF-8 Plain Text
  410. Duration                                 : 1 h 43 min
  411. Bit rate                                 : 50 b/s
  412. Count of elements                        : 1274
  413. Stream size                              : 38.5 KiB (0%)
  414. Title                                    : Simplified
  415. Language                                 : Chinese
  416. Default                                  : No
  417. Forced                                   : No

  418. Text #31
  419. ID                                       : 33
  420. Format                                   : UTF-8
  421. Codec ID                                 : S_TEXT/UTF8
  422. Codec ID/Info                            : UTF-8 Plain Text
  423. Duration                                 : 1 h 43 min
  424. Bit rate                                 : 44 b/s
  425. Count of elements                        : 1274
  426. Stream size                              : 33.8 KiB (0%)
  427. Title                                    : Traditional
  428. Language                                 : Chinese
  429. Default                                  : No
  430. Forced                                   : No
复制代码

校园情圣/一半一半 The.Half.Of.It.2020.1080p.NF.WEBRip.DDP5.1.Atmos.x264-NTG 3.35GB-2.png 校园情圣/一半一半 The.Half.Of.It.2020.1080p.NF.WEBRip.DDP5.1.Atmos.x264-NTG 3.35GB-3.png 校园情圣/一半一半 The.Half.Of.It.2020.1080p.NF.WEBRip.DDP5.1.Atmos.x264-NTG 3.35GB-4.png







回复

使用道具 举报

懒得打字嘛,点击右侧快捷回复 【右侧内容,后台自定义】
您需要登录后才可以回帖 登录 | 立即加入

本版积分规则

Archiver|小黑屋| 蓝光电影网 |网站地图

Copyright © 2021 Comsenz Inc. Powered by 蓝光电影网

蓝光电影网

本站内容由用户自主分享和转载自互联网,转载目的在于传递更多信息,并不代表本网赞同其观点和对其真实性负责。

如有侵权、违反国家法律政策行为,请联系我们,我们会第一时间及时清除和处理!

举报反馈邮箱:[email protected]

快速回复 返回顶部 返回列表