找回密码

蓝光电影网

查看: 418|回复: 7

[喜剧] 刺猬索尼克/超音鼠大电影 Sonic.The.Hedgehog.2020.1080p.BluRay.x264.TrueHD.7.1.Atmos-FGT 11.67GB

[复制链接]
蓝光币
515
发表于 2020-5-2 09:46:35 | 显示全部楼层 |阅读模式
刺猬索尼克/超音鼠大电影 Sonic.The.Hedgehog.2020.1080p.BluRay.x264.TrueHD.7.1.Atmos-FGT 11.67GB-1.png

译  名 刺猬索尼克 / 超音鼠大电影(港) / 音速小子(台)
片  名 Sonic the Hedgehog
年  代 2020
产  地 加拿大 / 日本 / 美国
类  别 笑剧 / 行动 / 动画 / 冒险
语  言 英语
上映日期 2020(中国大陆) / 2020-02-14(美国)
IMDb评分  6.6/10 from 49619 users
IMDb链接  https://www.imdb.com/title/tt3794354
豆瓣评分 6.1/10 from 12409 users
豆瓣链接 https://movie.douban.com/subject/25905044/
片  长 99分钟
导  演 杰夫·福勒 Jeff Fowler
编  剧 范·罗比查乌克斯 Van Robichaux / 埃文·萨瑟 Evan Susser / 乔什·米勒 Josh Miller / Patrick Casey / 奥伦·尤济尔 Oren Uziel / 中裕司 Yuji Naka / Naoto Ohshima / Hirokazu Yasuhara
主  演 詹姆斯·麦斯登 James Marsden
       金·凯瑞 Jim Carrey
       本·施瓦茨 Ben Schwartz
       提卡·森普特 Tika Sumpter
       娜塔莎·罗斯韦尔 Natasha Rothwell
       亚当·佩里 Adam Pally
       李·马贾道布 Lee Majdoub
       尼尔·麦克唐纳 Neal McDonough
       汤姆·巴特勒 Tom Butler
       弗兰克·C·特纳 Frank C. Turner
       梅洛德·诺西普·尼曼 Melody Nosipho Niemann
       珊农·陈-肯特 Shannon Chan-Kent
       布拉德·凯利 Brad Kelly
       尔芬娜·卢克 Elfina Luk
       加里·切克 Gary Chalk
       迈克尔·霍根 Michael Hogan
       珍妮·克鲁蒂尔 Jeanie Cloutier
       贝利·斯科德里 Bailey Skodje
       杰夫·桑卡 Jeff Sanca
       丽莎·钱德勒 Lisa Chandler
       科琳·欧肖内希 Colleen O'Shaughnessey
       利安娜·拉普 Leanne Lapp


标  签 游戏改编 | 动画 | 美国 | 笑剧 | 科幻 | 2020 | 索尼克 | 游戏

简  介  

  改编自世嘉公司出品的风行全球的电子游戏。电影报告了具有音速奔驰才能的刺猬索尼克在地球上展开新生活的故事。索尼克和他的新朋友汤姆(詹姆斯·麦斯登 饰)联手庇护地球,阻止邪恶的蛋头博士(金·凯瑞 饰)统治天下的计划。这部合适百口旁观的电影还约请了迪卡·桑普特参演,本·施瓦茨为索尼克配音。
  1. Video
  2. ID                                       : 1
  3. Format                                   : AVC
  4. Format/Info                              : Advanced Video Codec
  5. Format profile                           : [email protected]
  6. Format settings                          : CABAC / 4 Ref Frames
  7. Format settings, CABAC                   : Yes
  8. Format settings, Reference frames        : 4 frames
  9. Codec ID                                 : V_MPEG4/ISO/AVC
  10. Duration                                 : 1 h 38 min
  11. Bit rate                                 : 11.5 Mb/s
  12. Width                                    : 1 920 pixels
  13. Height                                   : 804 pixels
  14. Display aspect ratio                     : 2.40:1
  15. Frame rate mode                          : Constant
  16. Frame rate                               : 23.976 (24000/1001/189150) FPS
  17. Color space                              : YUV
  18. Chroma subsampling                       : 4:2:0
  19. Bit depth                                : 8 bits
  20. Scan type                                : Progressive
  21. Bits/(Pixel*Frame)                       : 0.311
  22. Stream size                              : 7.94 GiB (68%)
  23. Title                                    : Sonic.The.Hedgehog.2020.1080p.BluRay.x264.TrueHD.7.1.Atmos-FGT
  24. Writing library                          : x264 core 148 r2748 97eaef2
  25. Encoding settings                        : cabac=1 / ref=4 / deblock=1:-2:-2 / analyse=0x3:0x113 / me=umh / subme=9 / psy=1 / psy_rd=1.00:0.15 / mixed_ref=1 / me_range=16 / chroma_me=1 / trellis=2 / 8x8dct=1 / cqm=0 / deadzone=21,11 / fast_pskip=1 / chroma_qp_offset=-3 / threads=72 / lookahead_threads=3 / sliced_threads=0 / nr=0 / decimate=1 / interlaced=0 / bluray_compat=0 / constrained_intra=0 / bframes=3 / b_pyramid=2 / b_adapt=1 / b_bias=0 / direct=3 / weightb=1 / open_gop=0 / weightp=2 / keyint=250 / keyint_min=25 / scenecut=40 / intra_refresh=0 / rc_lookahead=50 / rc=2pass / mbtree=1 / bitrate=11500 / ratetol=1.0 / qcomp=0.60 / qpmin=0 / qpmax=69 / qpstep=4 / cplxblur=20.0 / qblur=0.5 / vbv_maxrate=31250 / vbv_bufsize=31250 / nal_hrd=none / filler=0 / ip_ratio=1.40 / aq=1:1.00
  26. Language                                 : English
  27. Default                                  : Yes
  28. Forced                                   : No

  29. Audio #1
  30. ID                                       : 2
  31. Format                                   : MLP FBA 16-ch
  32. Format/Info                              : Meridian Lossless Packing FBA with 16-channel presentation
  33. Commercial name                          : Dolby TrueHD with Dolby Atmos
  34. Codec ID                                 : A_TRUEHD
  35. Duration                                 : 1 h 38 min
  36. Bit rate mode                            : Variable
  37. Bit rate                                 : 4 434 kb/s
  38. Maximum bit rate                         : 7 872 kb/s
  39. Channel(s)                               : 8 channels
  40. Channel layout                           : L R C LFE Ls Rs Lb Rb
  41. Sampling rate                            : 48.0 kHz
  42. Frame rate                               : 1 200.000 FPS (40 SPF)
  43. Compression mode                         : Lossless
  44. Stream size                              : 3.06 GiB (26%)
  45. Title                                    : Sonic.The.Hedgehog.2020.1080p.BluRay.x264.TrueHD.7.1.Atmos-FGT
  46. Language                                 : English
  47. Default                                  : Yes
  48. Forced                                   : No
  49. Number of dynamic objects                : 11
  50. Bed channel count                        : 1 channel
  51. Bed channel configuration                : LFE

  52. Audio #2
  53. ID                                       : 3
  54. Format                                   : AC-3
  55. Format/Info                              : Audio Coding 3
  56. Commercial name                          : Dolby Digital
  57. Codec ID                                 : A_AC3
  58. Duration                                 : 1 h 38 min
  59. Bit rate mode                            : Constant
  60. Bit rate                                 : 640 kb/s
  61. Channel(s)                               : 6 channels
  62. Channel layout                           : L R C LFE Ls Rs
  63. Sampling rate                            : 48.0 kHz
  64. Frame rate                               : 31.250 FPS (1536 SPF)
  65. Bit depth                                : 16 bits
  66. Compression mode                         : Lossy
  67. Stream size                              : 453 MiB (4%)
  68. Title                                    : Sonic.The.Hedgehog.2020.1080p.BluRay.x264.TrueHD.7.1.Atmos-FGT
  69. Language                                 : English
  70. Service kind                             : Complete Main
  71. Default                                  : No
  72. Forced                                   : No

  73. Text #1
  74. ID                                       : 4
  75. Format                                   : UTF-8
  76. Codec ID                                 : S_TEXT/UTF8
  77. Codec ID/Info                            : UTF-8 Plain Text
  78. Duration                                 : 1 h 31 min
  79. Bit rate                                 : 65 b/s
  80. Count of elements                        : 1276
  81. Stream size                              : 43.8 KiB (0%)
  82. Title                                    : English-SRT
  83. Language                                 : English
  84. Default                                  : Yes
  85. Forced                                   : No

  86. Text #2
  87. ID                                       : 5
  88. Format                                   : PGS
  89. Muxing mode                              : zlib
  90. Codec ID                                 : S_HDMV/PGS
  91. Codec ID/Info                            : Picture based subtitle format used on BDs/HD-DVDs
  92. Duration                                 : 1 h 31 min
  93. Bit rate                                 : 45.2 kb/s
  94. Count of elements                        : 2564
  95. Stream size                              : 29.6 MiB (0%)
  96. Title                                    : English-PGS
  97. Language                                 : English
  98. Default                                  : No
  99. Forced                                   : No

  100. Text #3
  101. ID                                       : 6
  102. Format                                   : PGS
  103. Muxing mode                              : zlib
  104. Codec ID                                 : S_HDMV/PGS
  105. Codec ID/Info                            : Picture based subtitle format used on BDs/HD-DVDs
  106. Duration                                 : 1 h 32 min
  107. Bit rate                                 : 51.8 kb/s
  108. Count of elements                        : 3184
  109. Stream size                              : 34.3 MiB (0%)
  110. Title                                    : English-SDH-PGS
  111. Language                                 : English
  112. Default                                  : No
  113. Forced                                   : No

  114. Text #4
  115. ID                                       : 7
  116. Format                                   : PGS
  117. Muxing mode                              : zlib
  118. Codec ID                                 : S_HDMV/PGS
  119. Codec ID/Info                            : Picture based subtitle format used on BDs/HD-DVDs
  120. Duration                                 : 1 h 37 min
  121. Bit rate                                 : 36.0 kb/s
  122. Count of elements                        : 2512
  123. Stream size                              : 25.1 MiB (0%)
  124. Title                                    : Danish-PGS
  125. Language                                 : Danish
  126. Default                                  : No
  127. Forced                                   : No

  128. Text #5
  129. ID                                       : 8
  130. Format                                   : PGS
  131. Muxing mode                              : zlib
  132. Codec ID                                 : S_HDMV/PGS
  133. Codec ID/Info                            : Picture based subtitle format used on BDs/HD-DVDs
  134. Duration                                 : 1 h 37 min
  135. Bit rate                                 : 34.5 kb/s
  136. Count of elements                        : 2466
  137. Stream size                              : 24.1 MiB (0%)
  138. Title                                    : Dutch-PGS
  139. Language                                 : Dutch
  140. Default                                  : No
  141. Forced                                   : No

  142. Text #6
  143. ID                                       : 9
  144. Format                                   : PGS
  145. Muxing mode                              : zlib
  146. Codec ID                                 : S_HDMV/PGS
  147. Codec ID/Info                            : Picture based subtitle format used on BDs/HD-DVDs
  148. Duration                                 : 1 h 37 min
  149. Bit rate                                 : 36.8 kb/s
  150. Count of elements                        : 2618
  151. Stream size                              : 25.7 MiB (0%)
  152. Title                                    : Finnish-PGS
  153. Language                                 : Finnish
  154. Default                                  : No
  155. Forced                                   : No

  156. Text #7
  157. ID                                       : 10
  158. Format                                   : PGS
  159. Muxing mode                              : zlib
  160. Codec ID                                 : S_HDMV/PGS
  161. Codec ID/Info                            : Picture based subtitle format used on BDs/HD-DVDs
  162. Duration                                 : 1 h 37 min
  163. Bit rate                                 : 32.9 kb/s
  164. Count of elements                        : 2468
  165. Stream size                              : 23.0 MiB (0%)
  166. Title                                    : French-PGS
  167. Language                                 : French
  168. Default                                  : No
  169. Forced                                   : No

  170. Text #8
  171. ID                                       : 11
  172. Format                                   : PGS
  173. Muxing mode                              : zlib
  174. Codec ID                                 : S_HDMV/PGS
  175. Codec ID/Info                            : Picture based subtitle format used on BDs/HD-DVDs
  176. Duration                                 : 1 h 37 min
  177. Bit rate                                 : 44.1 kb/s
  178. Count of elements                        : 2594
  179. Stream size                              : 30.8 MiB (0%)
  180. Title                                    : French-PGS
  181. Language                                 : French
  182. Default                                  : No
  183. Forced                                   : No

  184. Text #9
  185. ID                                       : 12
  186. Format                                   : PGS
  187. Muxing mode                              : zlib
  188. Codec ID                                 : S_HDMV/PGS
  189. Codec ID/Info                            : Picture based subtitle format used on BDs/HD-DVDs
  190. Duration                                 : 1 h 37 min
  191. Bit rate                                 : 39.2 kb/s
  192. Count of elements                        : 2572
  193. Stream size                              : 27.4 MiB (0%)
  194. Title                                    : Italian-PGS
  195. Language                                 : Italian
  196. Default                                  : No
  197. Forced                                   : No

  198. Text #10
  199. ID                                       : 13
  200. Format                                   : PGS
  201. Muxing mode                              : zlib
  202. Codec ID                                 : S_HDMV/PGS
  203. Codec ID/Info                            : Picture based subtitle format used on BDs/HD-DVDs
  204. Duration                                 : 1 h 37 min
  205. Bit rate                                 : 34.5 kb/s
  206. Count of elements                        : 2584
  207. Stream size                              : 24.1 MiB (0%)
  208. Title                                    : Norwegian-PGS
  209. Language                                 : Norwegian
  210. Default                                  : No
  211. Forced                                   : No

  212. Text #11
  213. ID                                       : 14
  214. Format                                   : PGS
  215. Muxing mode                              : zlib
  216. Codec ID                                 : S_HDMV/PGS
  217. Codec ID/Info                            : Picture based subtitle format used on BDs/HD-DVDs
  218. Duration                                 : 1 h 37 min
  219. Bit rate                                 : 36.5 kb/s
  220. Count of elements                        : 2510
  221. Stream size                              : 25.5 MiB (0%)
  222. Title                                    : Portuguese-PGS
  223. Language                                 : Portuguese
  224. Default                                  : No
  225. Forced                                   : No

  226. Text #12
  227. ID                                       : 15
  228. Format                                   : PGS
  229. Muxing mode                              : zlib
  230. Codec ID                                 : S_HDMV/PGS
  231. Codec ID/Info                            : Picture based subtitle format used on BDs/HD-DVDs
  232. Duration                                 : 1 h 37 min
  233. Bit rate                                 : 38.6 kb/s
  234. Count of elements                        : 2528
  235. Stream size                              : 26.9 MiB (0%)
  236. Title                                    : Spanish-PGS
  237. Language                                 : Spanish
  238. Default                                  : No
  239. Forced                                   : No

  240. Text #13
  241. ID                                       : 16
  242. Format                                   : PGS
  243. Muxing mode                              : zlib
  244. Codec ID                                 : S_HDMV/PGS
  245. Codec ID/Info                            : Picture based subtitle format used on BDs/HD-DVDs
  246. Duration                                 : 1 h 37 min
  247. Bit rate                                 : 40.7 kb/s
  248. Count of elements                        : 2618
  249. Stream size                              : 28.4 MiB (0%)
  250. Title                                    : Spanish-PGS
  251. Language                                 : Spanish
  252. Default                                  : No
  253. Forced                                   : No

  254. Text #14
  255. ID                                       : 17
  256. Format                                   : PGS
  257. Muxing mode                              : zlib
  258. Codec ID                                 : S_HDMV/PGS
  259. Codec ID/Info                            : Picture based subtitle format used on BDs/HD-DVDs
  260. Duration                                 : 1 h 37 min
  261. Bit rate                                 : 36.1 kb/s
  262. Count of elements                        : 2578
  263. Stream size                              : 25.2 MiB (0%)
  264. Title                                    : Swedish-PGS
  265. Language                                 : Swedish
  266. Default                                  : No
  267. Forced                                   : No

  268. Menu
  269. 00:00:00.000                             : en:Chapter 01
  270. 00:03:52.190                             : en:Chapter 02
  271. 00:09:32.989                             : en:Chapter 03
  272. 00:12:45.973                             : en:Chapter 04
  273. 00:18:09.421                             : en:Chapter 05
  274. 00:22:20.797                             : en:Chapter 06
  275. 00:27:33.693                             : en:Chapter 07
  276. 00:35:09.107                             : en:Chapter 08
  277. 00:41:37.328                             : en:Chapter 09
  278. 00:51:24.623                             : en:Chapter 10
  279. 01:01:04.827                             : en:Chapter 11
  280. 01:04:38.374                             : en:Chapter 12
  281. 01:10:20.341                             : en:Chapter 13
  282. 01:18:54.020                             : en:Chapter 14
  283. 01:25:38.716                             : en:Chapter 15
  284. 01:30:27.296                             : en:Chapter 16
复制代码

刺猬索尼克/超音鼠大电影 Sonic.The.Hedgehog.2020.1080p.BluRay.x264.TrueHD.7.1.Atmos-FGT 11.67GB-2.png 刺猬索尼克/超音鼠大电影 Sonic.The.Hedgehog.2020.1080p.BluRay.x264.TrueHD.7.1.Atmos-FGT 11.67GB-3.png 刺猬索尼克/超音鼠大电影 Sonic.The.Hedgehog.2020.1080p.BluRay.x264.TrueHD.7.1.Atmos-FGT 11.67GB-4.png







回复

使用道具 举报

蓝光币
641
发表于 2020-5-4 17:15:35 | 显示全部楼层
谢谢楼主无私分享。
回复 支持 反对

使用道具 举报

蓝光币
70
发表于 2020-5-9 23:07:35 | 显示全部楼层
太失望了喜剧之王
回复 支持 反对

使用道具 举报

懒得打字嘛,点击右侧快捷回复 【右侧内容,后台自定义】
您需要登录后才可以回帖 登录 | 立即加入

本版积分规则

Archiver|小黑屋| 蓝光电影网 |网站地图

Copyright © 2021 Comsenz Inc. Powered by 蓝光电影网

蓝光电影网

本站内容由用户自主分享和转载自互联网,转载目的在于传递更多信息,并不代表本网赞同其观点和对其真实性负责。

如有侵权、违反国家法律政策行为,请联系我们,我们会第一时间及时清除和处理!

举报反馈邮箱:[email protected]

快速回复 返回顶部 返回列表