找回密码

蓝光电影网

查看: 300|回复: 1

[喜剧] 刺猬索尼克/超音鼠大电影 Sonic.The.Hedgehog.2020.1080p.BluRay.x264.DTS-HD.MA.7.1-FGT 11.01GB

[复制链接]
蓝光币
519
发表于 2020-5-2 09:47:26 | 显示全部楼层 |阅读模式
刺猬索尼克/超音鼠大电影 Sonic.The.Hedgehog.2020.1080p.BluRay.x264.DTS-HD.MA.7.1-FGT 11.01GB-1.png

译  名 刺猬索尼克 / 超音鼠大电影(港) / 音速小子(台)
片  名 Sonic the Hedgehog
年  代 2020
产  地 加拿大 / 日本 / 美国
类  别 笑剧 / 行动 / 动画 / 冒险
语  言 英语
上映日期 2020(中国大陆) / 2020-02-14(美国)
IMDb评分  6.6/10 from 49619 users
IMDb链接  https://www.imdb.com/title/tt3794354
豆瓣评分 6.1/10 from 12409 users
豆瓣链接 https://movie.douban.com/subject/25905044/
片  长 99分钟
导  演 杰夫·福勒 Jeff Fowler
编  剧 范·罗比查乌克斯 Van Robichaux / 埃文·萨瑟 Evan Susser / 乔什·米勒 Josh Miller / Patrick Casey / 奥伦·尤济尔 Oren Uziel / 中裕司 Yuji Naka / Naoto Ohshima / Hirokazu Yasuhara
主  演 詹姆斯·麦斯登 James Marsden
       金·凯瑞 Jim Carrey
       本·施瓦茨 Ben Schwartz
       提卡·森普特 Tika Sumpter
       娜塔莎·罗斯韦尔 Natasha Rothwell
       亚当·佩里 Adam Pally
       李·马贾道布 Lee Majdoub
       尼尔·麦克唐纳 Neal McDonough
       汤姆·巴特勒 Tom Butler
       弗兰克·C·特纳 Frank C. Turner
       梅洛德·诺西普·尼曼 Melody Nosipho Niemann
       珊农·陈-肯特 Shannon Chan-Kent
       布拉德·凯利 Brad Kelly
       尔芬娜·卢克 Elfina Luk
       加里·切克 Gary Chalk
       迈克尔·霍根 Michael Hogan
       珍妮·克鲁蒂尔 Jeanie Cloutier
       贝利·斯科德里 Bailey Skodje
       杰夫·桑卡 Jeff Sanca
       丽莎·钱德勒 Lisa Chandler
       科琳·欧肖内希 Colleen O'Shaughnessey
       利安娜·拉普 Leanne Lapp


标  签 游戏改编 | 动画 | 美国 | 笑剧 | 科幻 | 2020 | 索尼克 | 游戏

简  介  

  改编自世嘉公司出品的风行全球的电子游戏。电影报告了具有音速奔驰才能的刺猬索尼克在地球上展开新生活的故事。索尼克和他的新朋友汤姆(詹姆斯·麦斯登 饰)联手庇护地球,阻止邪恶的蛋头博士(金·凯瑞 饰)统治天下的计划。这部合适百口旁观的电影还约请了迪卡·桑普特参演,本·施瓦茨为索尼克配音。
  1. Video
  2. ID                                       : 1
  3. Format                                   : AVC
  4. Format/Info                              : Advanced Video Codec
  5. Format profile                           : [email protected]
  6. Format settings                          : CABAC / 4 Ref Frames
  7. Format settings, CABAC                   : Yes
  8. Format settings, Reference frames        : 4 frames
  9. Codec ID                                 : V_MPEG4/ISO/AVC
  10. Duration                                 : 1 h 38 min
  11. Bit rate                                 : 11.5 Mb/s
  12. Width                                    : 1 920 pixels
  13. Height                                   : 804 pixels
  14. Display aspect ratio                     : 2.40:1
  15. Frame rate mode                          : Constant
  16. Frame rate                               : 23.976 (24000/1001/189150) FPS
  17. Color space                              : YUV
  18. Chroma subsampling                       : 4:2:0
  19. Bit depth                                : 8 bits
  20. Scan type                                : Progressive
  21. Bits/(Pixel*Frame)                       : 0.311
  22. Stream size                              : 7.94 GiB (72%)
  23. Title                                    : Sonic.The.Hedgehog.2020.1080p.BluRay.x264.DTS-HD.MA.7.1-FGT
  24. Writing library                          : x264 core 148 r2748 97eaef2
  25. Encoding settings                        : cabac=1 / ref=4 / deblock=1:-2:-2 / analyse=0x3:0x113 / me=umh / subme=9 / psy=1 / psy_rd=1.00:0.15 / mixed_ref=1 / me_range=16 / chroma_me=1 / trellis=2 / 8x8dct=1 / cqm=0 / deadzone=21,11 / fast_pskip=1 / chroma_qp_offset=-3 / threads=72 / lookahead_threads=3 / sliced_threads=0 / nr=0 / decimate=1 / interlaced=0 / bluray_compat=0 / constrained_intra=0 / bframes=3 / b_pyramid=2 / b_adapt=1 / b_bias=0 / direct=3 / weightb=1 / open_gop=0 / weightp=2 / keyint=250 / keyint_min=25 / scenecut=40 / intra_refresh=0 / rc_lookahead=50 / rc=2pass / mbtree=1 / bitrate=11500 / ratetol=1.0 / qcomp=0.60 / qpmin=0 / qpmax=69 / qpstep=4 / cplxblur=20.0 / qblur=0.5 / vbv_maxrate=31250 / vbv_bufsize=31250 / nal_hrd=none / filler=0 / ip_ratio=1.40 / aq=1:1.00
  26. Language                                 : English
  27. Default                                  : Yes
  28. Forced                                   : No

  29. Audio
  30. ID                                       : 2
  31. Format                                   : DTS XLL
  32. Format/Info                              : Digital Theater Systems
  33. Commercial name                          : DTS-HD Master Audio
  34. Codec ID                                 : A_DTS
  35. Duration                                 : 1 h 38 min
  36. Bit rate mode                            : Variable
  37. Bit rate                                 : 4 188 kb/s
  38. Channel(s)                               : 8 channels
  39. Channel layout                           : C L R LFE Lb Rb Lss Rss
  40. Sampling rate                            : 48.0 kHz
  41. Frame rate                               : 93.750 FPS (512 SPF)
  42. Bit depth                                : 24 bits
  43. Compression mode                         : Lossless
  44. Stream size                              : 2.89 GiB (26%)
  45. Title                                    : Sonic.The.Hedgehog.2020.1080p.BluRay.x264.DTS-HD.MA.7.1-FGT
  46. Language                                 : English
  47. Default                                  : Yes
  48. Forced                                   : No

  49. Text #1
  50. ID                                       : 3
  51. Format                                   : UTF-8
  52. Codec ID                                 : S_TEXT/UTF8
  53. Codec ID/Info                            : UTF-8 Plain Text
  54. Duration                                 : 1 h 31 min
  55. Bit rate                                 : 65 b/s
  56. Count of elements                        : 1276
  57. Stream size                              : 43.8 KiB (0%)
  58. Title                                    : English-SRT
  59. Language                                 : English
  60. Default                                  : Yes
  61. Forced                                   : No

  62. Text #2
  63. ID                                       : 4
  64. Format                                   : PGS
  65. Muxing mode                              : zlib
  66. Codec ID                                 : S_HDMV/PGS
  67. Codec ID/Info                            : Picture based subtitle format used on BDs/HD-DVDs
  68. Duration                                 : 1 h 31 min
  69. Bit rate                                 : 45.2 kb/s
  70. Count of elements                        : 2564
  71. Stream size                              : 29.6 MiB (0%)
  72. Title                                    : English-PGS
  73. Language                                 : English
  74. Default                                  : No
  75. Forced                                   : No

  76. Text #3
  77. ID                                       : 5
  78. Format                                   : PGS
  79. Muxing mode                              : zlib
  80. Codec ID                                 : S_HDMV/PGS
  81. Codec ID/Info                            : Picture based subtitle format used on BDs/HD-DVDs
  82. Duration                                 : 1 h 32 min
  83. Bit rate                                 : 51.8 kb/s
  84. Count of elements                        : 3184
  85. Stream size                              : 34.3 MiB (0%)
  86. Title                                    : English-SDH-PGS
  87. Language                                 : English
  88. Default                                  : No
  89. Forced                                   : No

  90. Text #4
  91. ID                                       : 6
  92. Format                                   : PGS
  93. Muxing mode                              : zlib
  94. Codec ID                                 : S_HDMV/PGS
  95. Codec ID/Info                            : Picture based subtitle format used on BDs/HD-DVDs
  96. Duration                                 : 1 h 37 min
  97. Bit rate                                 : 36.0 kb/s
  98. Count of elements                        : 2512
  99. Stream size                              : 25.1 MiB (0%)
  100. Title                                    : Danish-PGS
  101. Language                                 : Danish
  102. Default                                  : No
  103. Forced                                   : No

  104. Text #5
  105. ID                                       : 7
  106. Format                                   : PGS
  107. Muxing mode                              : zlib
  108. Codec ID                                 : S_HDMV/PGS
  109. Codec ID/Info                            : Picture based subtitle format used on BDs/HD-DVDs
  110. Duration                                 : 1 h 37 min
  111. Bit rate                                 : 34.5 kb/s
  112. Count of elements                        : 2466
  113. Stream size                              : 24.1 MiB (0%)
  114. Title                                    : Dutch-PGS
  115. Language                                 : Dutch
  116. Default                                  : No
  117. Forced                                   : No

  118. Text #6
  119. ID                                       : 8
  120. Format                                   : PGS
  121. Muxing mode                              : zlib
  122. Codec ID                                 : S_HDMV/PGS
  123. Codec ID/Info                            : Picture based subtitle format used on BDs/HD-DVDs
  124. Duration                                 : 1 h 37 min
  125. Bit rate                                 : 36.8 kb/s
  126. Count of elements                        : 2618
  127. Stream size                              : 25.7 MiB (0%)
  128. Title                                    : Finnish-PGS
  129. Language                                 : Finnish
  130. Default                                  : No
  131. Forced                                   : No

  132. Text #7
  133. ID                                       : 9
  134. Format                                   : PGS
  135. Muxing mode                              : zlib
  136. Codec ID                                 : S_HDMV/PGS
  137. Codec ID/Info                            : Picture based subtitle format used on BDs/HD-DVDs
  138. Duration                                 : 1 h 37 min
  139. Bit rate                                 : 32.9 kb/s
  140. Count of elements                        : 2468
  141. Stream size                              : 23.0 MiB (0%)
  142. Title                                    : French-PGS
  143. Language                                 : French
  144. Default                                  : No
  145. Forced                                   : No

  146. Text #8
  147. ID                                       : 10
  148. Format                                   : PGS
  149. Muxing mode                              : zlib
  150. Codec ID                                 : S_HDMV/PGS
  151. Codec ID/Info                            : Picture based subtitle format used on BDs/HD-DVDs
  152. Duration                                 : 1 h 37 min
  153. Bit rate                                 : 44.1 kb/s
  154. Count of elements                        : 2594
  155. Stream size                              : 30.8 MiB (0%)
  156. Title                                    : French-PGS
  157. Language                                 : French
  158. Default                                  : No
  159. Forced                                   : No

  160. Text #9
  161. ID                                       : 11
  162. Format                                   : PGS
  163. Muxing mode                              : zlib
  164. Codec ID                                 : S_HDMV/PGS
  165. Codec ID/Info                            : Picture based subtitle format used on BDs/HD-DVDs
  166. Duration                                 : 1 h 37 min
  167. Bit rate                                 : 39.2 kb/s
  168. Count of elements                        : 2572
  169. Stream size                              : 27.4 MiB (0%)
  170. Title                                    : Italian-PGS
  171. Language                                 : Italian
  172. Default                                  : No
  173. Forced                                   : No

  174. Text #10
  175. ID                                       : 12
  176. Format                                   : PGS
  177. Muxing mode                              : zlib
  178. Codec ID                                 : S_HDMV/PGS
  179. Codec ID/Info                            : Picture based subtitle format used on BDs/HD-DVDs
  180. Duration                                 : 1 h 37 min
  181. Bit rate                                 : 34.5 kb/s
  182. Count of elements                        : 2584
  183. Stream size                              : 24.1 MiB (0%)
  184. Title                                    : Norwegian-PGS
  185. Language                                 : Norwegian
  186. Default                                  : No
  187. Forced                                   : No

  188. Text #11
  189. ID                                       : 13
  190. Format                                   : PGS
  191. Muxing mode                              : zlib
  192. Codec ID                                 : S_HDMV/PGS
  193. Codec ID/Info                            : Picture based subtitle format used on BDs/HD-DVDs
  194. Duration                                 : 1 h 37 min
  195. Bit rate                                 : 36.5 kb/s
  196. Count of elements                        : 2510
  197. Stream size                              : 25.5 MiB (0%)
  198. Title                                    : Portuguese-PGS
  199. Language                                 : Portuguese
  200. Default                                  : No
  201. Forced                                   : No

  202. Text #12
  203. ID                                       : 14
  204. Format                                   : PGS
  205. Muxing mode                              : zlib
  206. Codec ID                                 : S_HDMV/PGS
  207. Codec ID/Info                            : Picture based subtitle format used on BDs/HD-DVDs
  208. Duration                                 : 1 h 37 min
  209. Bit rate                                 : 38.6 kb/s
  210. Count of elements                        : 2528
  211. Stream size                              : 26.9 MiB (0%)
  212. Title                                    : Spanish-PGS
  213. Language                                 : Spanish
  214. Default                                  : No
  215. Forced                                   : No

  216. Text #13
  217. ID                                       : 15
  218. Format                                   : PGS
  219. Muxing mode                              : zlib
  220. Codec ID                                 : S_HDMV/PGS
  221. Codec ID/Info                            : Picture based subtitle format used on BDs/HD-DVDs
  222. Duration                                 : 1 h 37 min
  223. Bit rate                                 : 40.7 kb/s
  224. Count of elements                        : 2618
  225. Stream size                              : 28.4 MiB (0%)
  226. Title                                    : Spanish-PGS
  227. Language                                 : Spanish
  228. Default                                  : No
  229. Forced                                   : No

  230. Text #14
  231. ID                                       : 16
  232. Format                                   : PGS
  233. Muxing mode                              : zlib
  234. Codec ID                                 : S_HDMV/PGS
  235. Codec ID/Info                            : Picture based subtitle format used on BDs/HD-DVDs
  236. Duration                                 : 1 h 37 min
  237. Bit rate                                 : 36.1 kb/s
  238. Count of elements                        : 2578
  239. Stream size                              : 25.2 MiB (0%)
  240. Title                                    : Swedish-PGS
  241. Language                                 : Swedish
  242. Default                                  : No
  243. Forced                                   : No

  244. Menu
  245. 00:00:00.000                             : en:Chapter 01
  246. 00:03:52.190                             : en:Chapter 02
  247. 00:09:32.989                             : en:Chapter 03
  248. 00:12:45.973                             : en:Chapter 04
  249. 00:18:09.421                             : en:Chapter 05
  250. 00:22:20.797                             : en:Chapter 06
  251. 00:27:33.693                             : en:Chapter 07
  252. 00:35:09.107                             : en:Chapter 08
  253. 00:41:37.328                             : en:Chapter 09
  254. 00:51:24.623                             : en:Chapter 10
  255. 01:01:04.827                             : en:Chapter 11
  256. 01:04:38.374                             : en:Chapter 12
  257. 01:10:20.341                             : en:Chapter 13
  258. 01:18:54.020                             : en:Chapter 14
  259. 01:25:38.716                             : en:Chapter 15
  260. 01:30:27.296                             : en:Chapter 16
复制代码

刺猬索尼克/超音鼠大电影 Sonic.The.Hedgehog.2020.1080p.BluRay.x264.DTS-HD.MA.7.1-FGT 11.01GB-2.png 刺猬索尼克/超音鼠大电影 Sonic.The.Hedgehog.2020.1080p.BluRay.x264.DTS-HD.MA.7.1-FGT 11.01GB-3.png 刺猬索尼克/超音鼠大电影 Sonic.The.Hedgehog.2020.1080p.BluRay.x264.DTS-HD.MA.7.1-FGT 11.01GB-4.png







回复

使用道具 举报

蓝光币
129
发表于 2020-5-2 14:22:56 | 显示全部楼层

我看不错噢 谢谢楼主!蓝光电影网越来越好!
回复 支持 反对

使用道具 举报

懒得打字嘛,点击右侧快捷回复 【右侧内容,后台自定义】
您需要登录后才可以回帖 登录 | 立即加入

本版积分规则

Archiver|小黑屋| 蓝光电影网 |网站地图

Copyright © 2021 Comsenz Inc. Powered by 蓝光电影网

蓝光电影网

本站内容由用户自主分享和转载自互联网,转载目的在于传递更多信息,并不代表本网赞同其观点和对其真实性负责。

如有侵权、违反国家法律政策行为,请联系我们,我们会第一时间及时清除和处理!

举报反馈邮箱:[email protected]

快速回复 返回顶部 返回列表