找回密码

蓝光电影网

查看: 360|回复: 4

[剧情] 撒旦探戈 Satantango.1994.HUNGARIAN.1080p.BluRay.REMUX.AVC.LPCM.2.0-FGT 73.07GB

[复制链接]
蓝光币
519
发表于 2020-5-2 09:56:42 | 显示全部楼层 |阅读模式
p2327374507.jpg

译  名 撒旦探戈 / Satan's Tango
片  名 Sátántangó
年  代 1994
产  地 匈牙利 / 德国 / 瑞士
类  别 剧情 / 悬疑
语  言 匈牙利语
上映日期 1994-04-28
IMDb评分  8.5/10 from 8569 users
IMDb链接  https://www.imdb.com/title/tt0111341
豆瓣评分 9.0/10 from 4930 users
豆瓣链接 https://movie.douban.com/subject/1422088/
片  长 450分钟
导  演 Béla Tarr
编  剧 László Krasznahorkai / Béla Tarr
主  演 Mihály Víg
       Putyi Horváth
       László feLugossy


标  签 匈牙利 | 贝拉·塔尔 | 撒旦探戈 | 匈牙利电影 | 1994 | 历史片 | 悬疑 | 电影

简  介  

  “片长七小时却每一分钟皆排山倒海,令人沉迷。希望在我有生之年,年年都重看一遍。”——苏珊?桑塔格
  收场八分钟的推轨镜头,已道出此片的史诗气势。牛群从牛棚涌出,摄影机隔 着 一列陈旧的农居追踪,风趣的是牠们一路盲今朝冲,一路还试图交配。塔可夫斯基式的画面,却是教人屏息的典型塔尔气概,妙笔一挥预告一个个人农场若何走向衰亡。故事始于传闻已死的骗子重临村子,他要骗走农场支出 ,却给村民认定是大救星。接 着 上演一个悲剧,然后是一个嘲讽故事。全片十二章的结构正如 Krashnahorkai 的原着,启发自六步踏前、六步退后的探戈舞,分轻视角偶然重複同一剧情。农场终极的命运暗喻九十年月初共产主义的破产,同时也是人类配合命运的观照。
  全片最精采两段,一是担任叙事者的医生偷偷记录村民活动,他蹒跚买醉的跟镜,成为最动人的观影存在体验。另一段女孩虐猫,亦写下影史上稀有的伤感时辰。没有故弄玄虚,一种交接故事的坦白,让演员在实在时候存在,让观众随他们的神态同步呼吸,箇中有导演对电影最大的深情与敬意。七个半小时的每个镜头,个个都是不朽──没有想固然的静止,而是自有一种有机的内在节奏。像小津和德莱叶,塔尔深谙长镜头的真理。这是必须去履历的,平生难逢的观影经历。
  1. Video
  2. ID                                       : 1
  3. Format                                   : AVC
  4. Format/Info                              : Advanced Video Codec
  5. Format profile                           : [email protected]
  6. Format settings                          : CABAC / 3 Ref Frames
  7. Format settings, CABAC                   : Yes
  8. Format settings, Reference frames        : 3 frames
  9. Format settings, GOP                     : M=3, N=12
  10. Codec ID                                 : V_MPEG4/ISO/AVC
  11. Duration                                 : 7 h 19 min
  12. Bit rate mode                            : Variable
  13. Bit rate                                 : 22.3 Mb/s
  14. Maximum bit rate                         : 35.0 Mb/s
  15. Width                                    : 1 920 pixels
  16. Height                                   : 1 080 pixels
  17. Display aspect ratio                     : 16:9
  18. Frame rate mode                          : Constant
  19. Frame rate                               : 24.000 FPS
  20. Standard                                 : NTSC
  21. Color space                              : YUV
  22. Chroma subsampling                       : 4:2:0
  23. Bit depth                                : 8 bits
  24. Scan type                                : Progressive
  25. Bits/(Pixel*Frame)                       : 0.448
  26. Stream size                              : 68.3 GiB (94%)
  27. Title                                    : Satantango.1994.HUNGARIAN.1080p.BluRay.x264.LPCM.2.0-FGT
  28. Language                                 : English
  29. Default                                  : No
  30. Forced                                   : No
  31. Color range                              : Limited
  32. Color primaries                          : BT.709
  33. Transfer characteristics                 : BT.709
  34. Matrix coefficients                      : BT.709

  35. Audio
  36. ID                                       : 2
  37. Format                                   : PCM
  38. Format settings                          : Little / Signed
  39. Codec ID                                 : A_PCM/INT/LIT
  40. Duration                                 : 7 h 19 min
  41. Bit rate mode                            : Constant
  42. Bit rate                                 : 1 536 kb/s
  43. Channel(s)                               : 2 channels
  44. Sampling rate                            : 48.0 kHz
  45. Frame rate                               : 30.000 FPS (1600 SPF)
  46. Bit depth                                : 16 bits
  47. Stream size                              : 4.71 GiB (6%)
  48. Title                                    : Satantango.1994.HUNGARIAN.1080p.BluRay.x264.LPCM.2.0-FGT
  49. Language                                 : Hungarian
  50. Default                                  : Yes
  51. Forced                                   : No

  52. Text #1
  53. ID                                       : 3
  54. Format                                   : UTF-8
  55. Codec ID                                 : S_TEXT/UTF8
  56. Codec ID/Info                            : UTF-8 Plain Text
  57. Duration                                 : 6 h 37 min
  58. Bit rate                                 : 21 b/s
  59. Count of elements                        : 1763
  60. Stream size                              : 61.8 KiB (0%)
  61. Title                                    : English-SRT
  62. Language                                 : English
  63. Default                                  : Yes
  64. Forced                                   : No

  65. Text #2
  66. ID                                       : 4
  67. Format                                   : PGS
  68. Muxing mode                              : zlib
  69. Codec ID                                 : S_HDMV/PGS
  70. Codec ID/Info                            : Picture based subtitle format used on BDs/HD-DVDs
  71. Duration                                 : 7 h 18 min
  72. Bit rate                                 : 11.7 kb/s
  73. Count of elements                        : 3830
  74. Stream size                              : 36.6 MiB (0%)
  75. Title                                    : English-PGS
  76. Language                                 : English
  77. Default                                  : No
  78. Forced                                   : No

  79. Menu
  80. 00:00:00.000                             : en:Chapter 01
  81. 00:21:22.666                             : en:Chapter 02
  82. 00:41:47.791                             : en:Chapter 03
  83. 01:01:06.833                             : en:Chapter 04
  84. 01:15:46.750                             : en:Chapter 05
  85. 01:54:09.541                             : en:Chapter 06
  86. 02:08:48.000                             : en:Chapter 07
  87. 02:17:25.000                             : en:Chapter 08
  88. 02:58:24.958                             : en:Chapter 09
  89. 03:18:40.916                             : en:Chapter 10
  90. 03:37:53.958                             : en:Chapter 11
  91. 03:57:29.833                             : en:Chapter 12
  92. 04:21:53.166                             : en:Chapter 01
  93. 04:39:50.833                             : en:Chapter 02
  94. 04:54:32.791                             : en:Chapter 03
  95. 05:08:07.749                             : en:Chapter 04
  96. 05:22:09.833                             : en:Chapter 05
  97. 05:34:23.708                             : en:Chapter 06
  98. 05:59:58.041                             : en:Chapter 07
  99. 06:14:43.958                             : en:Chapter 08
  100. 06:23:37.999                             : en:Chapter 09
  101. 06:49:11.291                             : en:Chapter 10
  102. 07:06:48.958                             : en:Chapter 11
  103. 07:13:54.958                             : en:Chapter 12
复制代码

撒旦探戈 Satantango.1994.HUNGARIAN.1080p.BluRay.REMUX.AVC.LPCM.2.0-FGT 73.07GB-1.png 撒旦探戈 Satantango.1994.HUNGARIAN.1080p.BluRay.REMUX.AVC.LPCM.2.0-FGT 73.07GB-2.png 撒旦探戈 Satantango.1994.HUNGARIAN.1080p.BluRay.REMUX.AVC.LPCM.2.0-FGT 73.07GB-3.png







回复

使用道具 举报

懒得打字嘛,点击右侧快捷回复 【右侧内容,后台自定义】
您需要登录后才可以回帖 登录 | 立即加入

本版积分规则

Archiver|小黑屋| 蓝光电影网 |网站地图

Copyright © 2021 Comsenz Inc. Powered by 蓝光电影网

蓝光电影网

本站内容由用户自主分享和转载自互联网,转载目的在于传递更多信息,并不代表本网赞同其观点和对其真实性负责。

如有侵权、违反国家法律政策行为,请联系我们,我们会第一时间及时清除和处理!

举报反馈邮箱:[email protected]

快速回复 返回顶部 返回列表