找回密码

蓝光电影网

查看: 533|回复: 6

[剧情] 野性的呼唤/极地守护犬 The.Call.of.the.Wild.2020.1080p.BluRay.x264-YOL0W 11.56GB

[复制链接]
蓝光币
515
发表于 2020-5-2 10:05:08 | 显示全部楼层 |阅读模式
野性的呼唤/极地保护犬 The.Call.of.the.Wild.2020.1080p.BluRay.x264-YOL0W 11.56GB-1.png

译  名 野性的呼唤 / 极地保护犬(港 / 台) / 绝境长征 / 荒原的呼唤
片  名 The Call of the Wild
年  代 2020
产  地 美国 / 加拿大
类  别 剧情 / 冒险
语  言 英语 / 法语
上映日期 2020(中国大陆) / 2020-02-21(美国)
IMDb评分  6.8/10 from 16733 users
IMDb链接  https://www.imdb.com/title/tt7504726
豆瓣评分 7.1/10 from 8980 users
豆瓣链接 https://movie.douban.com/subject/27199324/
片  长 110分钟
导  演 克里斯·桑德斯 Chris Sanders
编  剧 迈克尔·格林 Michael Green / 杰克·伦敦 Jack London
主  演 哈里森·福特 Harrison Ford
       丹·史蒂文斯 Dan Stevens
       凯伦·吉兰 Karen Gillan
       布莱德利·惠特福德 Bradley Whitford
       珍·路易莎·凯利 Jean Louisa Kelly
       泰瑞·诺塔里 Terry Notary
       卡卡琪 Cara Gee
       奥玛·希 Omar Sy
       科林·伍德尔 Colin Woodell
       韦斯·布朗 Wes Brown
       安东尼·莫利纳利 Anthony Molinari
       布拉德·格林奎斯特 Brad Greenquist
       亚当·弗格斯 Adam Fergus
       阿莱克斯·索洛维茨 Alex Solowitz
       卡尔·马金恩 Karl Makinen
       希瑟·麦克普什 Heather McPhaul
       哈尔·戴恩 Hal Dion
       G·拉里·巴特勒 G. Larry Butler
       桑蒂尔·亚历克西斯·瓦奎兹 Shantiel Alexis Vazquez
       特洛伊·迪林格 Troy Dillinger


标  签 狗 | 冒险 | 动物 | 温情 | 美国 | 文学作品改编 | 剧情 | 2020

简  介  

  影片改编自杰克·伦敦同名小说,导演克里斯·桑德斯([疯狂原始人]),编剧迈克尔·格林[(异形:契约])。该片以克朗岱克淘金热为布景,围绕淘金者约翰·桑顿(福特饰)的历险故事展开。
  1. Video
  2. ID                                       : 1
  3. Format                                   : AVC
  4. Format/Info                              : Advanced Video Codec
  5. Format profile                           : [email protected]
  6. Format settings                          : CABAC / 5 Ref Frames
  7. Format settings, CABAC                   : Yes
  8. Format settings, Reference frames        : 5 frames
  9. Codec ID                                 : V_MPEG4/ISO/AVC
  10. Duration                                 : 1 h 39 min
  11. Bit rate                                 : 11.6 Mb/s
  12. Width                                    : 1 920 pixels
  13. Height                                   : 804 pixels
  14. Display aspect ratio                     : 2.40:1
  15. Frame rate mode                          : Constant
  16. Frame rate                               : 23.976 (24000/1001/189150) FPS
  17. Color space                              : YUV
  18. Chroma subsampling                       : 4:2:0
  19. Bit depth                                : 8 bits
  20. Scan type                                : Progressive
  21. Bits/(Pixel*Frame)                       : 0.313
  22. Stream size                              : 8.08 GiB (70%)
  23. Writing library                          : x264 core 160 r3000 33f9e14
  24. Encoding settings                        : cabac=1 / ref=5 / deblock=1:-3:-3 / analyse=0x3:0x133 / me=umh / subme=10 / psy=1 / psy_rd=1.00:0.00 / mixed_ref=1 / me_range=32 / chroma_me=1 / trellis=2 / 8x8dct=1 / cqm=0 / deadzone=21,11 / fast_pskip=0 / chroma_qp_offset=-2 / threads=12 / lookahead_threads=2 / sliced_threads=0 / nr=0 / decimate=0 / interlaced=0 / bluray_compat=0 / constrained_intra=0 / bframes=8 / b_pyramid=2 / b_adapt=2 / b_bias=0 / direct=3 / weightb=1 / open_gop=0 / weightp=2 / keyint=250 / keyint_min=23 / scenecut=40 / intra_refresh=0 / rc=crf / mbtree=0 / crf=15.0 / qcomp=0.60 / qpmin=0 / qpmax=69 / qpstep=4 / ip_ratio=1.40 / pb_ratio=1.30 / aq=3:0.80
  25. Language                                 : English
  26. Default                                  : Yes
  27. Forced                                   : No

  28. Audio
  29. ID                                       : 2
  30. Format                                   : DTS ES XLL
  31. Format/Info                              : Digital Theater Systems
  32. Commercial name                          : DTS-HD Master Audio
  33. Codec ID                                 : A_DTS
  34. Duration                                 : 1 h 39 min
  35. Bit rate mode                            : Variable
  36. Bit rate                                 : 4 974 kb/s
  37. Channel(s)                               : 8 channels
  38. Channel layout                           : C L R Ls Rs LFE Lb Rb
  39. Sampling rate                            : 48.0 kHz
  40. Frame rate                               : 93.750 FPS (512 SPF)
  41. Bit depth                                : 24 bits
  42. Compression mode                         : Lossless
  43. Stream size                              : 3.46 GiB (30%)
  44. Title                                    : English
  45. Language                                 : English
  46. Default                                  : Yes
  47. Forced                                   : No

  48. Text #1
  49. ID                                       : 3
  50. Format                                   : PGS
  51. Muxing mode                              : zlib
  52. Codec ID                                 : S_HDMV/PGS
  53. Codec ID/Info                            : Picture based subtitle format used on BDs/HD-DVDs
  54. Duration                                 : 1 h 34 min
  55. Bit rate                                 : 26.8 kb/s
  56. Count of elements                        : 2500
  57. Stream size                              : 18.1 MiB (0%)
  58. Language                                 : English
  59. Default                                  : No
  60. Forced                                   : No

  61. Text #2
  62. ID                                       : 4
  63. Format                                   : PGS
  64. Muxing mode                              : zlib
  65. Codec ID                                 : S_HDMV/PGS
  66. Codec ID/Info                            : Picture based subtitle format used on BDs/HD-DVDs
  67. Duration                                 : 1 h 39 min
  68. Bit rate                                 : 15.5 kb/s
  69. Count of elements                        : 1568
  70. Stream size                              : 11.0 MiB (0%)
  71. Language                                 : French
  72. Default                                  : No
  73. Forced                                   : No

  74. Text #3
  75. ID                                       : 5
  76. Format                                   : PGS
  77. Muxing mode                              : zlib
  78. Codec ID                                 : S_HDMV/PGS
  79. Codec ID/Info                            : Picture based subtitle format used on BDs/HD-DVDs
  80. Duration                                 : 1 h 38 min
  81. Bit rate                                 : 14.1 kb/s
  82. Count of elements                        : 1536
  83. Stream size                              : 9.95 MiB (0%)
  84. Language                                 : Spanish
  85. Default                                  : No
  86. Forced                                   : No

  87. Text #4
  88. ID                                       : 6
  89. Format                                   : PGS
  90. Muxing mode                              : zlib
  91. Codec ID                                 : S_HDMV/PGS
  92. Codec ID/Info                            : Picture based subtitle format used on BDs/HD-DVDs
  93. Duration                                 : 1 h 32 min
  94. Bit rate                                 : 338 b/s
  95. Count of elements                        : 34
  96. Stream size                              : 229 KiB (0%)
  97. Language                                 : French
  98. Default                                  : No
  99. Forced                                   : No

  100. Text #5
  101. ID                                       : 7
  102. Format                                   : PGS
  103. Muxing mode                              : zlib
  104. Codec ID                                 : S_HDMV/PGS
  105. Codec ID/Info                            : Picture based subtitle format used on BDs/HD-DVDs
  106. Duration                                 : 4 s 714 ms
  107. Bit rate                                 : 24.8 kb/s
  108. Count of elements                        : 2
  109. Stream size                              : 14.3 KiB (0%)
  110. Language                                 : Spanish
  111. Default                                  : No
  112. Forced                                   : No

  113. Menu
  114. 00:00:00.000                             : en:Chapter 01
  115. 00:03:35.882                             : en:Chapter 02
  116. 00:05:58.608                             : en:Chapter 03
  117. 00:10:31.339                             : en:Chapter 04
  118. 00:15:49.699                             : en:Chapter 05
  119. 00:19:03.851                             : en:Chapter 06
  120. 00:23:29.533                             : en:Chapter 07
  121. 00:27:28.355                             : en:Chapter 08
  122. 00:32:27.821                             : en:Chapter 09
  123. 00:34:32.529                             : en:Chapter 10
  124. 00:41:43.793                             : en:Chapter 11
  125. 00:46:14.522                             : en:Chapter 12
  126. 00:50:07.338                             : en:Chapter 13
  127. 00:55:15.562                             : en:Chapter 14
  128. 01:00:30.919                             : en:Chapter 15
  129. 01:04:04.632                             : en:Chapter 16
  130. 01:07:46.980                             : en:Chapter 17
  131. 01:12:38.563                             : en:Chapter 18
  132. 01:17:02.952                             : en:Chapter 19
  133. 01:19:25.219                             : en:Chapter 20
  134. 01:23:07.107                             : en:Chapter 21
  135. 01:26:21.218                             : en:Chapter 22
  136. 01:29:26.194                             : en:Chapter 23
  137. 01:32:22.620                             : en:Chapter 24
复制代码

野性的呼唤/极地保护犬 The.Call.of.the.Wild.2020.1080p.BluRay.x264-YOL0W 11.56GB-2.png







回复

使用道具 举报

蓝光币
314
发表于 2020-5-3 06:49:57 | 显示全部楼层
感谢楼主的分享!
回复 支持 反对

使用道具 举报

懒得打字嘛,点击右侧快捷回复 【右侧内容,后台自定义】
您需要登录后才可以回帖 登录 | 立即加入

本版积分规则

Archiver|小黑屋| 蓝光电影网 |网站地图

Copyright © 2021 Comsenz Inc. Powered by 蓝光电影网

蓝光电影网

本站内容由用户自主分享和转载自互联网,转载目的在于传递更多信息,并不代表本网赞同其观点和对其真实性负责。

如有侵权、违反国家法律政策行为,请联系我们,我们会第一时间及时清除和处理!

举报反馈邮箱:[email protected]

快速回复 返回顶部 返回列表