找回密码

蓝光电影网

查看: 398|回复: 2

[动作] 突破禁锢/Lord of Street(德国) Lords.of.the.Street.2008.1080p.BluRay.x264-THUGLiNE 7.95GB

[复制链接]
蓝光币
519
发表于 2020-5-2 10:06:23 | 显示全部楼层 |阅读模式
冲破禁锢/Lord of Street(德国) Lords.of.the.Street.2008.1080p.BluRay.x264-THUGLiNE 7.95GB-1.png

译  名 冲破禁锢 / Lord of Street(德国) / 陌头之王
片  名 Jump Out Boys
年  代 2008
产  地 美国
类  别 行动 / 犯罪
语  言 英语 / 法语
上映日期 2008
IMDb评分  2.5/10 from 564 users
IMDb链接  https://www.imdb.com/title/tt1084697
豆瓣评分 0/10 from 0 users
豆瓣链接 https://movie.douban.com/subject/5190732/
片  长 83 分钟
导  演 Amir Valinia
编  剧 Anthony Faia III
主  演 DMX
       克里斯·克里斯托佛森 Kris Kristofferson
       谢尔登·罗宾斯 Sheldon Robins
       维罗尼卡·贝里 Veronica Berry


简  介  

  暂无相关剧情先容
  1. Video
  2. ID                                       : 1
  3. Format                                   : AVC
  4. Format/Info                              : Advanced Video Codec
  5. Format profile                           : [email protected]
  6. Format settings                          : CABAC / 4 Ref Frames
  7. Format settings, CABAC                   : Yes
  8. Format settings, Reference frames        : 4 frames
  9. Codec ID                                 : V_MPEG4/ISO/AVC
  10. Duration                                 : 1 h 22 min
  11. Bit rate                                 : 12.2 Mb/s
  12. Width                                    : 1 920 pixels
  13. Height                                   : 1 080 pixels
  14. Display aspect ratio                     : 16:9
  15. Frame rate mode                          : Constant
  16. Frame rate                               : 23.976 FPS
  17. Color space                              : YUV
  18. Chroma subsampling                       : 4:2:0
  19. Bit depth                                : 8 bits
  20. Scan type                                : Progressive
  21. Bits/(Pixel*Frame)                       : 0.246
  22. Stream size                              : 6.92 GiB (87%)
  23. Writing library                          : x264 core 79 r1347 5ddd61b
  24. Encoding settings                        : cabac=1 / ref=4 / deblock=1:0:0 / analyse=0x3:0x133 / me=umh / subme=7 / psy=1 / psy_rd=1.0:0.0 / mixed_ref=1 / me_range=16 / chroma_me=1 / trellis=1 / 8x8dct=1 / cqm=0 / deadzone=21,11 / chroma_qp_offset=-2 / threads=12 / nr=0 / decimate=1 / mbaff=0 / constrained_intra=0 / bframes=3 / b_pyramid=0 / b_adapt=1 / b_bias=0 / direct=1 / wpredb=1 / wpredp=2 / keyint=250 / keyint_min=25 / scenecut=40 / rc_lookahead=40 / rc=2pass / mbtree=1 / bitrate=12241 / ratetol=1.0 / qcomp=0.60 / qpmin=10 / qpmax=51 / qpstep=4 / cplxblur=20.0 / qblur=0.5 / ip_ratio=1.40 / aq=1:1.00
  25. Language                                 : English
  26. Default                                  : Yes
  27. Forced                                   : No

  28. Audio
  29. ID                                       : 2
  30. Format                                   : DTS
  31. Format/Info                              : Digital Theater Systems
  32. Codec ID                                 : A_DTS
  33. Duration                                 : 1 h 22 min
  34. Bit rate mode                            : Constant
  35. Bit rate                                 : 1 509 kb/s
  36. Channel(s)                               : 2 channels
  37. Channel layout                           : L R
  38. Sampling rate                            : 48.0 kHz
  39. Frame rate                               : 93.750 FPS (512 SPF)
  40. Bit depth                                : 24 bits
  41. Compression mode                         : Lossy
  42. Stream size                              : 893 MiB (11%)
  43. Language                                 : English
  44. Default                                  : Yes
  45. Forced                                   : No
复制代码

冲破禁锢/Lord of Street(德国) Lords.of.the.Street.2008.1080p.BluRay.x264-THUGLiNE 7.95GB-2.png 冲破禁锢/Lord of Street(德国) Lords.of.the.Street.2008.1080p.BluRay.x264-THUGLiNE 7.95GB-3.png 冲破禁锢/Lord of Street(德国) Lords.of.the.Street.2008.1080p.BluRay.x264-THUGLiNE 7.95GB-4.png






回复

使用道具 举报

懒得打字嘛,点击右侧快捷回复 【右侧内容,后台自定义】
您需要登录后才可以回帖 登录 | 立即加入

本版积分规则

Archiver|小黑屋| 蓝光电影网 |网站地图

Copyright © 2021 Comsenz Inc. Powered by 蓝光电影网

蓝光电影网

本站内容由用户自主分享和转载自互联网,转载目的在于传递更多信息,并不代表本网赞同其观点和对其真实性负责。

如有侵权、违反国家法律政策行为,请联系我们,我们会第一时间及时清除和处理!

举报反馈邮箱:[email protected]

快速回复 返回顶部 返回列表