找回密码

蓝光电影网

查看: 677|回复: 4

[剧情] 吻我 Kiss.Me.2011.1080p.BluRay.x264-SONiDO 7.64GB

[复制链接]
蓝光币
519
发表于 2020-5-2 10:10:20 | 显示全部楼层 |阅读模式
吻我 Kiss.Me.2011.1080p.BluRay.x264-SONiDO 7.64GB-1.png

译  名 吻我 / Kiss Me / With Every Heartbeat / 陪伴着每次心跳 / 每一次心跳
片  名 Kyss mig
年  代 2011
产  地 瑞典 / 丹麦 / 德国
类  别 剧情 / 恋爱 / 同性 / 家庭
语  言 瑞典语
上映日期 2011-07-29(瑞典)
IMDb评分  6.9/10 from 8996 users
IMDb链接  https://www.imdb.com/title/tt1859522
豆瓣评分 7.3/10 from 9544 users
豆瓣链接 https://movie.douban.com/subject/6307506/
片  长 103分钟
导  演 亚历桑德拉-泰雷斯·肯宁 Alexandra Therese Keining
编  剧 亚历桑德拉-泰雷斯·肯宁 Alexandra Therese Keining / Josefine Tengblad
主  演 鲁斯.维嘉.费尔南德茨 Ruth Vega Fernandez
       丽芙·姆琼斯 Liv Mj?nes
       克里斯特·亨利卡森 Krister Henriksson
       莱娜·恩卓 Lena Endre
       乔金·奈特奎斯特 Joakim N?tterqvist
       Josefine Tengblad
       汤姆·柳恩格曼 Tom Ljungman
       伯恩·谢尔曼 Bj?rn Kjellman
       Jan Goldring
       Anna Nygren


标  签 瑞典 | les | 恋爱 | 同性 | 同道 | 2011 | 剧情 | LGBT

简  介  

  米娅(鲁斯·维嘉·费尔南德兹 Ruth Vega Fernandez 饰)的爸爸莱斯(克里斯特·亨里克森 Krister Henriksson 饰)行将迎娶福瑞达(Liv Mj?n?s 饰)的母亲伊莉莎白(莱娜·恩卓 Lena Endre 饰),在两人的订婚宴会上,米娅第一次和福瑞达相遇了。 随着时候的推移,虽然米娅已经有了未婚夫蒂姆(乔金·奈特奎斯特 Joakim N?tterqvist 饰),虽然米娅和福瑞达现在已经是没有血缘关系的姐妹了,可这并不能阻止她们之间的关系越来越密切,一种灼热的豪情正在以没法阻挡的速度囊括着两人的心里,而她们大白,一旦这类豪情被公之于众,将会对各自的家庭带来多大的危险。在怅惘和迟疑之间,两人的未来该何去何从?
  1. Video
  2. ID                                       : 1
  3. Format                                   : AVC
  4. Format/Info                              : Advanced Video Codec
  5. Format profile                           : [email protected]
  6. Format settings                          : CABAC / 5 Ref Frames
  7. Format settings, CABAC                   : Yes
  8. Format settings, Reference frames        : 5 frames
  9. Codec ID                                 : V_MPEG4/ISO/AVC
  10. Duration                                 : 1 h 47 min
  11. Bit rate                                 : 8 690 kb/s
  12. Width                                    : 1 920 pixels
  13. Height                                   : 816 pixels
  14. Display aspect ratio                     : 2.35:1
  15. Frame rate mode                          : Constant
  16. Frame rate                               : 24.000 FPS
  17. Color space                              : YUV
  18. Chroma subsampling                       : 4:2:0
  19. Bit depth                                : 8 bits
  20. Scan type                                : Progressive
  21. Bits/(Pixel*Frame)                       : 0.231
  22. Stream size                              : 6.36 GiB (83%)
  23. Writing library                          : x264 core 129 r2230 1cffe9f
  24. Encoding settings                        : cabac=1 / ref=5 / deblock=1:0:0 / analyse=0x3:0x133 / me=umh / subme=7 / psy=1 / psy_rd=1.00:0.00 / mixed_ref=1 / me_range=16 / chroma_me=1 / trellis=1 / 8x8dct=1 / cqm=0 / deadzone=21,11 / fast_pskip=0 / chroma_qp_offset=-2 / threads=12 / lookahead_threads=2 / sliced_threads=0 / nr=0 / decimate=1 / interlaced=0 / bluray_compat=0 / constrained_intra=0 / bframes=3 / b_pyramid=2 / b_adapt=2 / b_bias=0 / direct=3 / weightb=1 / open_gop=0 / weightp=2 / keyint=250 / keyint_min=24 / scenecut=40 / intra_refresh=0 / rc_lookahead=50 / rc=2pass / mbtree=1 / bitrate=8690 / ratetol=1.0 / qcomp=0.60 / qpmin=0 / qpmax=69 / qpstep=4 / cplxblur=20.0 / qblur=0.5 / ip_ratio=1.40 / aq=1:1.00
  25. Language                                 : English
  26. Default                                  : Yes
  27. Forced                                   : No

  28. Audio
  29. ID                                       : 2
  30. Format                                   : DTS
  31. Format/Info                              : Digital Theater Systems
  32. Codec ID                                 : A_DTS
  33. Duration                                 : 1 h 47 min
  34. Bit rate mode                            : Constant
  35. Bit rate                                 : 1 509 kb/s
  36. Channel(s)                               : 6 channels
  37. Channel layout                           : C L R Ls Rs LFE
  38. Sampling rate                            : 48.0 kHz
  39. Frame rate                               : 93.750 FPS (512 SPF)
  40. Bit depth                                : 24 bits
  41. Compression mode                         : Lossy
  42. Stream size                              : 1.13 GiB (15%)
  43. Language                                 : Swedish
  44. Default                                  : Yes
  45. Forced                                   : No

  46. Text
  47. ID                                       : 3
  48. Format                                   : UTF-8
  49. Codec ID                                 : S_TEXT/UTF8
  50. Codec ID/Info                            : UTF-8 Plain Text
  51. Language                                 : English
  52. Default                                  : Yes
  53. Forced                                   : No

  54. Menu
  55. 00:00:00.000                             : en:00:00:00.000
  56. 00:11:53.208                             : en:00:11:53.208
  57. 00:23:37.792                             : en:00:23:37.792
  58. 00:30:42.875                             : en:00:30:42.875
  59. 00:55:36.833                             : en:00:55:36.833
  60. 01:11:28.292                             : en:01:11:28.292
  61. 01:23:31.958                             : en:01:23:31.958
  62. 01:35:56.875                             : en:01:35:56.875
复制代码

吻我 Kiss.Me.2011.1080p.BluRay.x264-SONiDO 7.64GB-2.png 吻我 Kiss.Me.2011.1080p.BluRay.x264-SONiDO 7.64GB-3.png 吻我 Kiss.Me.2011.1080p.BluRay.x264-SONiDO 7.64GB-4.png







回复

使用道具 举报

蓝光币
177
发表于 2020-5-2 22:34:31 | 显示全部楼层
谢谢LZ分享下来看看
回复 支持 反对

使用道具 举报

懒得打字嘛,点击右侧快捷回复 【右侧内容,后台自定义】
您需要登录后才可以回帖 登录 | 立即加入

本版积分规则

Archiver|小黑屋| 蓝光电影网 |网站地图

Copyright © 2021 Comsenz Inc. Powered by 蓝光电影网

蓝光电影网

本站内容由用户自主分享和转载自互联网,转载目的在于传递更多信息,并不代表本网赞同其观点和对其真实性负责。

如有侵权、违反国家法律政策行为,请联系我们,我们会第一时间及时清除和处理!

举报反馈邮箱:[email protected]

快速回复 返回顶部 返回列表