找回密码

蓝光电影网

查看: 874|回复: 6

[惊悚] 施虐女王 Justify.2010.1080p.BluRay.x264-NOSCREENS 7.95GB

[复制链接]
蓝光币
511
发表于 2020-5-2 10:11:13 | 显示全部楼层 |阅读模式
施虐女王 Justify.2010.1080p.BluRay.x264-NOSCREENS 7.95GB-1.png

译  名 施虐女王
片  名 Justify
年  代 2010
产  地 美国
类  别 惊悚
语  言 英语
上映日期 2010
IMDb评分  3.4/10 from 136 users
IMDb链接  https://www.imdb.com/title/tt1384591
豆瓣评分 0/10 from 0 users
豆瓣链接 https://movie.douban.com/subject/5173807/
片  长 76分钟
导  演 Insung Hwang
编  剧 Insung Hwang
主  演 Rebecca Larsen
       Jaret Sacrey
       Elizabeth Weisbaum


标  签 惊悚 | 美国 | 美国电影 | 720p | v | 2010 | 犯罪 | ewwe

简  介  

  Abby has not gotten over the tragedy of her father’s death or the dominatrix who killed him. His death left a permanent impression in her mind that men who love her will always abandon her. She is determined to discover the reasons for his death and avenge his murder. Posing as a dominatrix, she eases her way into the world of sadomasochism and sexual fantasies…a perfect setup for finding the truth and getting revenge!
  1. Video
  2. ID                                       : 1
  3. Format                                   : AVC
  4. Format/Info                              : Advanced Video Codec
  5. Format profile                           : [email protected]
  6. Format settings                          : CABAC / 4 Ref Frames
  7. Format settings, CABAC                   : Yes
  8. Format settings, Reference frames        : 4 frames
  9. Codec ID                                 : V_MPEG4/ISO/AVC
  10. Duration                                 : 1 h 16 min
  11. Bit rate                                 : 13.4 Mb/s
  12. Width                                    : 1 920 pixels
  13. Height                                   : 1 080 pixels
  14. Display aspect ratio                     : 16:9
  15. Frame rate mode                          : Constant
  16. Frame rate                               : 23.976 (24000/1001/189150) FPS
  17. Color space                              : YUV
  18. Chroma subsampling                       : 4:2:0
  19. Bit depth                                : 8 bits
  20. Scan type                                : Progressive
  21. Bits/(Pixel*Frame)                       : 0.270
  22. Stream size                              : 6.99 GiB (88%)
  23. Title                                    : Justify
  24. Writing library                          : x264 core 125 r2200 999b753
  25. Encoding settings                        : cabac=1 / ref=4 / deblock=1:-1:-1 / analyse=0x3:0x113 / me=umh / subme=7 / psy=1 / psy_rd=1.00:0.15 / mixed_ref=1 / me_range=16 / chroma_me=1 / trellis=1 / 8x8dct=1 / cqm=0 / deadzone=21,11 / fast_pskip=0 / chroma_qp_offset=-3 / threads=18 / lookahead_threads=3 / sliced_threads=0 / nr=0 / decimate=1 / interlaced=0 / bluray_compat=0 / constrained_intra=0 / bframes=3 / b_pyramid=2 / b_adapt=1 / b_bias=0 / direct=1 / weightb=1 / open_gop=0 / weightp=2 / keyint=250 / keyint_min=23 / scenecut=40 / intra_refresh=0 / rc_lookahead=40 / rc=2pass / mbtree=1 / bitrate=13446 / ratetol=1.0 / qcomp=0.60 / qpmin=0 / qpmax=69 / qpstep=4 / cplxblur=20.0 / qblur=0.5 / ip_ratio=1.40 / aq=1:1.00
  26. Default                                  : Yes
  27. Forced                                   : No

  28. Audio
  29. ID                                       : 2
  30. Format                                   : DTS
  31. Format/Info                              : Digital Theater Systems
  32. Codec ID                                 : A_DTS
  33. Duration                                 : 1 h 16 min
  34. Bit rate mode                            : Constant
  35. Bit rate                                 : 1 509 kb/s
  36. Channel(s)                               : 6 channels
  37. Channel layout                           : C L R Ls Rs LFE
  38. Sampling rate                            : 48.0 kHz
  39. Frame rate                               : 93.750 FPS (512 SPF)
  40. Bit depth                                : 24 bits
  41. Compression mode                         : Lossy
  42. Stream size                              : 822 MiB (10%)
  43. Title                                    : DTS
  44. Language                                 : English
  45. Default                                  : Yes
  46. Forced                                   : No

  47. Menu
  48. 00:00:00.000                             : en:00:00:00.000
  49. 00:06:20.213                             : en:00:06:20.213
  50. 00:12:25.119                             : en:00:12:25.119
  51. 00:18:08.296                             : en:00:18:08.296
  52. 00:25:02.835                             : en:00:25:02.835
  53. 00:31:06.281                             : en:00:31:06.281
  54. 00:36:59.008                             : en:00:36:59.008
  55. 00:43:01.913                             : en:00:43:01.913
  56. 00:49:50.905                             : en:00:49:50.905
  57. 00:55:16.647                             : en:00:55:16.647
  58. 01:04:32.744                             : en:01:04:32.744
  59. 01:10:38.568                             : en:01:10:38.568
复制代码

施虐女王 Justify.2010.1080p.BluRay.x264-NOSCREENS 7.95GB-2.png 施虐女王 Justify.2010.1080p.BluRay.x264-NOSCREENS 7.95GB-3.png 施虐女王 Justify.2010.1080p.BluRay.x264-NOSCREENS 7.95GB-4.png







回复

使用道具 举报

懒得打字嘛,点击右侧快捷回复 【右侧内容,后台自定义】
您需要登录后才可以回帖 登录 | 立即加入

本版积分规则

Archiver|小黑屋| 蓝光电影网 |网站地图

Copyright © 2021 Comsenz Inc. Powered by 蓝光电影网

蓝光电影网

本站内容由用户自主分享和转载自互联网,转载目的在于传递更多信息,并不代表本网赞同其观点和对其真实性负责。

如有侵权、违反国家法律政策行为,请联系我们,我们会第一时间及时清除和处理!

举报反馈邮箱:[email protected]

快速回复 返回顶部 返回列表