找回密码

蓝光电影网

查看: 3294|回复: 8

[10bit.HDR] 喋血战士/血卫 Bloodshot.2020.2160p.UHD.BluRay.X265.10bit.HDR.TrueHD.7.1.Atmos-WhiteRhino 17.79GB

[复制链接]
蓝光币
515
发表于 2020-5-2 10:19:23 | 显示全部楼层 |阅读模式
蹀血战士/血卫 Bloodshot.2020.2160p.UHD.BluRay.X265.10bit.HDR.TrueHD.7.1.Atmos-WhiteRhino 17.79GB-1.png

译  名 蹀血战士 / 血卫(台)
片  名 Bloodshot
年  代 2020
产  地 中国大陆 / 美国
类  别 行动 / 科幻
语  言 英语
上映日期 2020(中国大陆) / 2020-03-13(美国)
IMDb评分  5.7/10 from 31009 users
IMDb链接  https://www.imdb.com/title/tt1634106
豆瓣评分 5.5/10 from 9477 users
豆瓣链接 https://movie.douban.com/subject/4830483/
片  长 109分钟
导  演 戴夫·威尔逊 Dave Wilson
编  剧 杰夫·瓦德洛 Jeff Wadlow / 埃里克·海瑟尔 Eric Heisserer / 凯文·范霍克 Kevin VanHook
主  演 范·迪塞尔 Vin Diesel
       艾莎·冈萨雷斯 Eiza González
       萨姆·修汉 Sam Heughan
       托比·凯贝尔 Toby Kebbell
       妲露拉·莱莉 Talulah Riley
       拉蒙尼·莫里斯 Lamorne Morris
       盖·皮尔斯 Guy Pearce
       悉达尔斯·达南杰 Siddharth Dhananjay
       泰勒·迈尔 Tyrel Meyer
       亚历克斯·安洛斯 Alex Anlos
       克莱德·伯宁 Clyde Berning
       杰里米·博阿多 Jeremy Boado
       塔梅尔·伯贾克 Tamer Burjaq
       亚历克斯·埃尔南德斯 Alex Hernandez
       约翰内斯·豪克尔·约翰内森 Jóhannes Haukur Jóhannesson
       帕特里克·克尔顿 Patrick Kerton


标  签 科幻 | 行动 | 美国 | 2020 | 超级豪杰 | 漫画改编 | 蹀血战士 | 奇异

简  介  

  电影按照勇士漫画改编,报告由范·迪塞尔饰演的兵士雷·加里森在战役中意外阵亡,被RST公司操纵尖端纳米技术起死复生,变身立即自愈、媲美超级电脑的超级豪杰——蹀血战士。苏醒的他固执于脑海中残余的记忆碎片,踏上为爱妻的复仇之路,却发现自己竟没法分清实在与虚幻...

  1. Video
  2. ID                                       : 1
  3. Format                                   : HEVC
  4. Format/Info                              : High Efficiency Video Coding
  5. Format profile                           : Main [email protected]@High
  6. HDR format                               : SMPTE ST 2086, HDR10 compatible
  7. Codec ID                                 : V_MPEGH/ISO/HEVC
  8. Duration                                 : 1 h 49 min
  9. Bit rate                                 : 19.3 Mb/s
  10. Width                                    : 3 840 pixels
  11. Height                                   : 1 604 pixels
  12. Display aspect ratio                     : 2.40:1
  13. Frame rate mode                          : Constant
  14. Frame rate                               : 23.976 (24000/1001/45165) FPS
  15. Color space                              : YUV
  16. Chroma subsampling                       : 4:2:0 (Type 2)
  17. Bit depth                                : 10 bits
  18. Bits/(Pixel*Frame)                       : 0.131
  19. Stream size                              : 14.8 GiB (83%)
  20. Writing library                          : x265 3.3+21-6bb2d88029c2:[Windows][GCC 10.0.1][64 bit] 10bit
  21. Encoding settings                        : cpuid=1111039 / frame-threads=5 / numa-pools=36 / wpp / no-pmode / no-pme / no-psnr / no-ssim / log-level=2 / input-csp=1 / input-res=3840x1604 / interlace=0 / total-frames=157272 / level-idc=51 / high-tier=1 / uhd-bd=0 / ref=4 / no-allow-non-conformance / repeat-headers / annexb / aud / hrd / info / hash=0 / no-temporal-layers / no-open-gop / min-keyint=23 / keyint=250 / gop-lookahead=0 / bframes=4 / b-adapt=2 / b-pyramid / bframe-bias=0 / rc-lookahead=25 / lookahead-slices=4 / scenecut=40 / hist-scenecut=0 / radl=0 / no-splice / no-intra-refresh / ctu=64 / min-cu-size=8 / rect / no-amp / max-tu-size=32 / tu-inter-depth=1 / tu-intra-depth=1 / limit-tu=0 / rdoq-level=2 / dynamic-rd=0.00 / no-ssim-rd / signhide / no-tskip / nr-intra=0 / nr-inter=0 / no-constrained-intra / strong-intra-smoothing / max-merge=3 / limit-refs=3 / limit-modes / me=3 / subme=3 / merange=57 / temporal-mvp / no-frame-dup / no-hme / weightp / no-weightb / no-analyze-src-pics / deblock=-3:-3 / no-sao / no-sao-non-deblock / rd=4 / selective-sao=0 / no-early-skip / rskip / no-fast-intra / no-tskip-fast / no-cu-lossless / no-b-intra / no-splitrd-skip / rdpenalty=0 / psy-rd=2.00 / psy-rdoq=1.00 / no-rd-refine / no-lossless / cbqpoffs=0 / crqpoffs=0 / rc=crf / crf=14.0 / qcomp=0.60 / qpstep=4 / stats-write=0 / stats-read=0 / vbv-maxrate=160000 / vbv-bufsize=160000 / vbv-init=0.9 / crf-max=0.0 / crf-min=0.0 / ipratio=1.40 / pbratio=1.30 / aq-mode=2 / aq-strength=1.00 / cutree / zone-count=0 / no-strict-cbr / qg-size=32 / no-rc-grain / qpmax=69 / qpmin=0 / no-const-vbv / sar=1 / overscan=0 / videoformat=5 / range=0 / colorprim=9 / transfer=16 / colormatrix=9 / chromaloc=1 / chromaloc-top=2 / chromaloc-bottom=2 / display-window=0 / master-display=G(13250,34500)B(7500,3000)R(34000,16000)WP(15635,16450)L(40000000,50) / cll=4004,602 / min-luma=0 / max-luma=1023 / log2-max-poc-lsb=8 / vui-timing-info / vui-hrd-info / slices=1 / no-opt-qp-pps / no-opt-ref-list-length-pps / no-multi-pass-opt-rps / scenecut-bias=0.05 / hist-threshold=0.01 / no-opt-cu-delta-qp / no-aq-motion / hdr10 / hdr10-opt / no-dhdr10-opt / no-idr-recovery-sei / analysis-reuse-level=0 / analysis-save-reuse-level=0 / analysis-load-reuse-level=0 / scale-factor=0 / refine-intra=0 / refine-inter=0 / refine-mv=1 / refine-ctu-distortion=0 / no-limit-sao / ctu-info=0 / no-lowpass-dct / refine-analysis-type=0 / copy-pic=1 / max-ausize-factor=1.0 / no-dynamic-refine / no-single-sei / no-hevc-aq / no-svt / no-field / qp-adaptation-range=1.00 / no-scenecut-aware-qpconformance-window-offsets / right=0 / bottom=0 / decoder-max-rate=0
  22. Default                                  : Yes
  23. Forced                                   : No
  24. Color range                              : Limited
  25. Color primaries                          : BT.2020
  26. Transfer characteristics                 : PQ
  27. Matrix coefficients                      : BT.2020 non-constant
  28. Mastering display color primaries        : Display P3
  29. Mastering display luminance              : min: 0.0050 cd/m2, max: 4000 cd/m2
  30. Maximum Content Light Level              : 4004 cd/m2
  31. Maximum Frame-Average Light Level        : 602 cd/m2

  32. Audio #1
  33. ID                                       : 2
  34. Format                                   : MLP FBA 16-ch
  35. Format/Info                              : Meridian Lossless Packing FBA with 16-channel presentation
  36. Commercial name                          : Dolby TrueHD with Dolby Atmos
  37. Codec ID                                 : A_TRUEHD
  38. Duration                                 : 1 h 49 min
  39. Bit rate mode                            : Variable
  40. Bit rate                                 : 3 188 kb/s
  41. Maximum bit rate                         : 5 454 kb/s
  42. Channel(s)                               : 8 channels
  43. Channel layout                           : L R C LFE Ls Rs Lb Rb
  44. Sampling rate                            : 48.0 kHz
  45. Frame rate                               : 1 200.000 FPS (40 SPF)
  46. Compression mode                         : Lossless
  47. Stream size                              : 2.43 GiB (14%)
  48. Language                                 : English
  49. Default                                  : Yes
  50. Forced                                   : No
  51. Number of dynamic objects                : 11
  52. Bed channel count                        : 1 channel
  53. Bed channel configuration                : LFE

  54. Audio #2
  55. ID                                       : 3
  56. Format                                   : AC-3
  57. Format/Info                              : Audio Coding 3
  58. Commercial name                          : Dolby Digital
  59. Codec ID                                 : A_AC3
  60. Duration                                 : 1 h 49 min
  61. Bit rate mode                            : Constant
  62. Bit rate                                 : 640 kb/s
  63. Channel(s)                               : 6 channels
  64. Channel layout                           : L R C LFE Ls Rs
  65. Sampling rate                            : 48.0 kHz
  66. Frame rate                               : 31.250 FPS (1536 SPF)
  67. Bit depth                                : 16 bits
  68. Compression mode                         : Lossy
  69. Stream size                              : 500 MiB (3%)
  70. Language                                 : English
  71. Service kind                             : Complete Main
  72. Default                                  : No
  73. Forced                                   : No

  74. Text #1
  75. ID                                       : 4
  76. Format                                   : PGS
  77. Muxing mode                              : zlib
  78. Codec ID                                 : S_HDMV/PGS
  79. Codec ID/Info                            : Picture based subtitle format used on BDs/HD-DVDs
  80. Duration                                 : 1 h 41 min
  81. Bit rate                                 : 28.0 kb/s
  82. Count of elements                        : 2030
  83. Stream size                              : 20.3 MiB (0%)
  84. Title                                    : Full
  85. Language                                 : English
  86. Default                                  : No
  87. Forced                                   : No

  88. Text #2
  89. ID                                       : 5
  90. Format                                   : PGS
  91. Muxing mode                              : zlib
  92. Codec ID                                 : S_HDMV/PGS
  93. Codec ID/Info                            : Picture based subtitle format used on BDs/HD-DVDs
  94. Duration                                 : 1 h 43 min
  95. Bit rate                                 : 30.9 kb/s
  96. Count of elements                        : 2318
  97. Stream size                              : 22.9 MiB (0%)
  98. Title                                    : SDH
  99. Language                                 : English
  100. Default                                  : No
  101. Forced                                   : No

  102. Text #3
  103. ID                                       : 6
  104. Format                                   : PGS
  105. Muxing mode                              : zlib
  106. Codec ID                                 : S_HDMV/PGS
  107. Codec ID/Info                            : Picture based subtitle format used on BDs/HD-DVDs
  108. Duration                                 : 1 h 48 min
  109. Bit rate                                 : 23.1 kb/s
  110. Count of elements                        : 2234
  111. Stream size                              : 17.8 MiB (0%)
  112. Language                                 : French
  113. Default                                  : No
  114. Forced                                   : No

  115. Text #4
  116. ID                                       : 7
  117. Format                                   : PGS
  118. Muxing mode                              : zlib
  119. Codec ID                                 : S_HDMV/PGS
  120. Codec ID/Info                            : Picture based subtitle format used on BDs/HD-DVDs
  121. Duration                                 : 1 h 48 min
  122. Bit rate                                 : 25.7 kb/s
  123. Count of elements                        : 2204
  124. Stream size                              : 19.9 MiB (0%)
  125. Language                                 : Spanish
  126. Default                                  : No
  127. Forced                                   : No

  128. Menu
  129. 00:00:00.000                             : en:Chapter 01
  130. 00:07:06.384                             : en:Chapter 02
  131. 00:13:56.210                             : en:Chapter 03
  132. 00:20:36.861                             : en:Chapter 04
  133. 00:25:05.546                             : en:Chapter 05
  134. 00:32:11.179                             : en:Chapter 06
  135. 00:41:41.499                             : en:Chapter 07
  136. 00:46:39.380                             : en:Chapter 08
  137. 00:53:35.629                             : en:Chapter 09
  138. 01:02:28.495                             : en:Chapter 10
  139. 01:08:59.344                             : en:Chapter 11
  140. 01:12:42.525                             : en:Chapter 12
  141. 01:19:15.918                             : en:Chapter 13
  142. 01:26:49.996                             : en:Chapter 14
  143. 01:31:07.379                             : en:Chapter 15
  144. 01:38:31.531                             : en:Chapter 16
复制代码
002508av6mdc376hv1cphe.png 002508onvyhzz6r1z26r2v.png 002508l5tjsh5mshgshqtm.png


回复

使用道具 举报

蓝光币
1
发表于 2020-5-2 16:24:17 | 显示全部楼层
本网站收费收的很值!会继续支持下去!
回复 支持 反对

使用道具 举报

蓝光币
12
发表于 2020-5-2 18:38:47 | 显示全部楼层

既然你诚信诚意的推荐了,那我就勉为其难的看看吧!蓝光电影网不走平凡路。
回复 支持 反对

使用道具 举报

蓝光币
3006
发表于 2020-5-3 01:29:31 | 显示全部楼层
楼主发贴辛苦了,谢谢楼主分享!我觉得蓝光电影网是注册对了!
回复 支持 反对

使用道具 举报

蓝光币
305
发表于 2020-5-5 19:25:16 | 显示全部楼层

这东西我收了!谢谢楼主!蓝光电影网真好!
回复 支持 反对

使用道具 举报

蓝光币
185
发表于 2020-5-21 16:55:10 | 显示全部楼层

这个帖子不回对不起自己!我想我是一天也不能离开蓝光电影网
回复 支持 反对

使用道具 举报

蓝光币
75
发表于 2021-5-10 15:13:29 | 显示全部楼层
楼主发贴辛苦了,谢谢楼主分享!我觉得蓝光电影网是注册对了!
回复 支持 反对

使用道具 举报

蓝光币
41
发表于 2021-8-16 09:33:30 | 显示全部楼层
楼主发贴辛苦了,谢谢楼主分享!我觉得蓝光电影网是注册对了!
回复 支持 反对

使用道具 举报

蓝光币
15
发表于 2021-9-5 11:13:25 | 显示全部楼层
楼主发贴辛苦了,谢谢楼主分享!
回复 支持 反对

使用道具 举报

懒得打字嘛,点击右侧快捷回复 【右侧内容,后台自定义】
您需要登录后才可以回帖 登录 | 立即加入

本版积分规则

Archiver|小黑屋| 蓝光电影网 |网站地图

Copyright © 2021 Comsenz Inc. Powered by 蓝光电影网

蓝光电影网

本站内容由用户自主分享和转载自互联网,转载目的在于传递更多信息,并不代表本网赞同其观点和对其真实性负责。

如有侵权、违反国家法律政策行为,请联系我们,我们会第一时间及时清除和处理!

举报反馈邮箱:[email protected]

快速回复 返回顶部 返回列表