找回密码

蓝光电影网

查看: 2725|回复: 2

[科幻] 侏罗纪游戏 The.Jurassic.Games.2018.1080p.BluRay.x264.DD5.1-CHD 6.36GB

[复制链接]
蓝光币
682
发表于 2018-9-3 22:45:57 | 显示全部楼层 |阅读模式

侏罗纪游戏 The.Jurassic.Games.2018.1080p.BluRay.x264.DD5.1-CHD 6.36GB-1.jpg
◎译  名 侏罗纪游戏
◎片  名 The Jurassic Games
◎年  代 2018
◎产  地 美国
◎类  别 科幻/惊悚
◎语  言 英语
◎上映日期 2018-05-21(英国)
◎豆瓣评分 3.2/10 from 85 users
◎豆瓣链接 https://movie.douban.com/subject/27065245/
◎片  长 86分钟
◎导  演 Ryan Bellgardt
◎主  演 Perrey Reeves
      Ryan Merriman
      Cate Jones
      Katie Burgess
      Rett Terrell
      Kaye Brownlee-France
      Bruce Davis

◎简  介

  在不遠的將來,每年十位世上最致命的死刑犯,將會在「侏羅 紀遊戲」競爭以獲得自在。在這場電視實境秀中,參賽者必須對抗兇猛的恐龍和绝不包涵的對手,最後的倖存者將獲得史无前例的自在、名望和財富!

  1. Video
  2. ID                                       : 1
  3. Format                                   : AVC
  4. Format/Info                              : Advanced Video Codec
  5. Format profile                           : [url=/cdn-cgi/l/email-protection][email protected][/url]
  6. Format settings                          : CABAC / 4 Ref Frames
  7. Format settings, CABAC                   : Yes
  8. Format settings, ReFrames                : 4 frames
  9. Codec ID                                 : V_MPEG4/ISO/AVC
  10. Duration                                 : 1 h 26 min
  11. Bit rate                                 : 10.1 Mb/s
  12. Width                                    : 1 920 pixels
  13. Height                                   : 806 pixels
  14. Display aspect ratio                     : 2.40:1
  15. Frame rate mode                          : Constant
  16. Frame rate                               : 23.976 (24000/1001) FPS
  17. Color space                              : YUV
  18. Chroma subsampling                       : 4:2:0
  19. Bit depth                                : 8 bits
  20. Scan type                                : Progressive
  21. Bits/(Pixel*Frame)                       : 0.272
  22. Stream size                              : 6.09 GiB (96%)
  23. Writing library                          : x264 core 155 r2867+74 66b5600 t_mod_Custom_2 [[url=/cdn-cgi/l/email-protection][email protected][/url] X86_64]
  24. Encoding settings                        : cabac=1 / ref=4 / deblock=1:-3:-3 / analyse=0x3:0x113 / me=umh / subme=10 / psy=1 / fade_compensate=0.00 / psy_rd=0.90:0.10 / mixed_ref=1 / me_range=48 / chroma_me=1 / trellis=2 / 8x8dct=1 / cqm=0 / deadzone=21,11 / fast_pskip=0 / chroma_qp_offset=-2 / threads=18 / lookahead_threads=3 / sliced_threads=0 / nr=0 / decimate=1 / interlaced=0 / bluray_compat=0 / constrained_intra=0 / fgo=0 / bframes=8 / b_pyramid=2 / b_adapt=2 / b_bias=0 / direct=3 / weightb=1 / open_gop=0 / weightp=2 / keyint=250 / keyint_min=23 / scenecut=40 / intra_refresh=0 / rc_lookahead=40 / rc=crf / mbtree=0 / crf=19.0000 / qcomp=0.70 / qpmin=0:0:0 / qpmax=69:69:69 / qpstep=4 / vbv_maxrate=35000 / vbv_bufsize=35000 / crf_max=0.0 / nal_hrd=none / filler=0 / ip_ratio=1.40 / pb_ratio=1.30 / aq=3:0.90 / aq-sensitivity=10.00 / aq-factor=1.00:1.00:1.00 / aq2=0 / aq3=2:[0.50:0.50]:[0.50:0.50]:[0.50:0.50]:[0.50:0.50] / aq3-sensitivity=10.00 / aq3-factor=[1.00:1.00]:[1.00:1.00]:[1.00:1.00] / aq3-boundary=192:64:24
  25. Language                                 : English
  26. Default                                  : Yes
  27. Forced                                   : No
  28. Color range                              : Limited
  29. Matrix coefficients                      : BT.709

  30. Audio
  31. ID                                       : 2
  32. Format                                   : AC-3
  33. Format/Info                              : Audio Coding 3
  34. Codec ID                                 : A_AC3
  35. Duration                                 : 1 h 26 min
  36. Bit rate mode                            : Constant
  37. Bit rate                                 : 448 kb/s
  38. Channel(s)                               : 6 channels
  39. Channel positions                        : Front: L C R, Side: L R, LFE
  40. Sampling rate                            : 48.0 kHz
  41. Frame rate                               : 31.250 FPS (1536 SPF)
  42. Bit depth                                : 16 bits
  43. Compression mode                         : Lossy
  44. Stream size                              : 277 MiB (4%)
  45. Language                                 : English
  46. Service kind                             : Complete Main
  47. Default                                  : Yes
  48. Forced                                   : No

  49. Menu
  50. 00:00:00.000                             : en:00:00:00.000
  51. 00:09:58.598                             : en:00:09:58.598
  52. 00:20:16.215                             : en:00:20:16.215
  53. 00:30:14.813                             : en:00:30:14.813
  54. 00:39:41.880                             : en:00:39:41.880
  55. 00:49:19.456                             : en:00:49:19.456
  56. 00:59:48.085                             : en:00:59:48.085
  57. 01:08:52.128                             : en:01:08:52.128
  58. 01:22:45.961                             : en:01:22:45.961
复制代码

复制代码

侏罗纪游戏 The.Jurassic.Games.2018.1080p.BluRay.x264.DD5.1-CHD 6.36GB-2.png 侏罗纪游戏 The.Jurassic.Games.2018.1080p.BluRay.x264.DD5.1-CHD 6.36GB-3.png







回复

使用道具 举报

蓝光币
48
发表于 2018-9-8 00:33:18 | 显示全部楼层
谢谢楼主分享:D
回复 支持 反对

使用道具 举报

蓝光币
3738
发表于 2018-9-11 21:53:27 | 显示全部楼层
谢谢楼主分享
回复 支持 反对

使用道具 举报

懒得打字嘛,点击右侧快捷回复 【右侧内容,后台自定义】
您需要登录后才可以回帖 登录 | 立即加入

本版积分规则

Archiver|小黑屋| 蓝光电影网 |网站地图

Copyright © 2021 Comsenz Inc. Powered by 蓝光电影网

蓝光电影网

本站内容由用户自主分享和转载自互联网,转载目的在于传递更多信息,并不代表本网赞同其观点和对其真实性负责。

如有侵权、违反国家法律政策行为,请联系我们,我们会第一时间及时清除和处理!

举报反馈邮箱:[email protected]

快速回复 返回顶部 返回列表