找回密码

蓝光电影网

查看: 750|回复: 4

[剧情] 直到黎明 Straight.on.Till.Morning.1972.1080p.BluRay.x264-SPOOKS 6.56GB

[复制链接]
蓝光币
623
发表于 2018-9-3 22:47:33 | 显示全部楼层 |阅读模式

直到拂晓 Straight.on.Till.Morning.1972.1080p.BluRay.x264-SPOOKS 6.56GB-1.jpg
◎译  名 直到拂晓
◎片  名 Straight on Till Morning
◎年  代 1972
◎产  地 英国
◎类  别 剧情/可骇/惊悚
◎语  言 英语
◎上映日期 1972
◎豆瓣评分 /10 from 0 users
◎豆瓣链接 https://movie.douban.com/subject/5055125/
◎片  长 96 分钟
◎导  演 Peter Collinson
◎主  演 丽塔·塔欣厄姆 Rita Tushingham
      谢恩·布赖恩特 Shane Briant
      卡佳·韦思 Katya Wyeth
      安妮·罗斯 Annie Ross
      汤姆·贝尔 Tom Bell
      克莱尔·凯利 Claire Kelly

◎简  介

  None

  1. Video
  2. ID                                       : 1
  3. Format                                   : AVC
  4. Format/Info                              : Advanced Video Codec
  5. Format profile                           : [url=/cdn-cgi/l/email-protection][email protected][/url]
  6. Format settings                          : CABAC / 4 Ref Frames
  7. Format settings, CABAC                   : Yes
  8. Format settings, RefFrames               : 4 frames
  9. Codec ID                                 : V_MPEG4/ISO/AVC
  10. Duration                                 : 1 h 36 min
  11. Bit rate                                 : 8 989 kb/s
  12. Width                                    : 1 792 pixels
  13. Height                                   : 1 080 pixels
  14. Display aspect ratio                     : 5:3
  15. Frame rate mode                          : Constant
  16. Frame rate                               : 23.976 (24000/1001) FPS
  17. Color space                              : YUV
  18. Chroma subsampling                       : 4:2:0
  19. Bit depth                                : 8 bits
  20. Scan type                                : Progressive
  21. Bits/(Pixel*Frame)                       : 0.194
  22. Stream size                              : 6.04 GiB (92%)
  23. Writing library                          : x264 core 155 r2901 7d0ff22
  24. Encoding settings                        : cabac=1 / ref=4 / deblock=1:-3:-3 / analyse=0x3:0x133 / me=umh / subme=8 / psy=1 / psy_rd=1.00:0.00 / mixed_ref=1 / me_range=16 / chroma_me=1 / trellis=1 / 8x8dct=1 / cqm=0 / deadzone=21,11 / fast_pskip=0 / chroma_qp_offset=-2 / threads=24 / lookahead_threads=4 / sliced_threads=0 / nr=0 / decimate=1 / interlaced=0 / bluray_compat=0 / constrained_intra=0 / bframes=3 / b_pyramid=2 / b_adapt=1 / b_bias=0 / direct=3 / weightb=1 / open_gop=0 / weightp=2 / keyint=250 / keyint_min=23 / scenecut=40 / intra_refresh=0 / rc_lookahead=50 / rc=2pass / mbtree=1 / bitrate=8989 / ratetol=1.0 / qcomp=0.60 / qpmin=0 / qpmax=69 / qpstep=4 / cplxblur=20.0 / qblur=0.5 / vbv_maxrate=62500 / vbv_bufsize=78125 / nal_hrd=none / filler=0 / ip_ratio=1.40 / aq=1:1.00
  25. Default                                  : Yes
  26. Forced                                   : No

  27. Audio
  28. ID                                       : 2
  29. Format                                   : DTS
  30. Format/Info                              : Digital Theater Systems
  31. Mode                                     : 16
  32. Format settings, Endianness              : Big
  33. Codec ID                                 : A_DTS
  34. Duration                                 : 1 h 36 min
  35. Bit rate mode                            : Constant
  36. Bit rate                                 : 768 kb/s
  37. Channel(s)                               : 2 channels
  38. Channel positions                        : Front: L R
  39. Sampling rate                            : 48.0 kHz
  40. Frame rate                               : 93.750 FPS (512 SPF)
  41. Bit depth                                : 24 bits
  42. Compression mode                         : Lossy
  43. Stream size                              : 529 MiB (8%)
  44. Language                                 : English
  45. Default                                  : Yes
  46. Forced                                   : No

  47. Menu
  48. 00:00:00.000                             : en:00:00:00.000
  49. 00:05:28.828                             : en:00:05:28.828
  50. 00:15:02.652                             : en:00:15:02.652
  51. 00:25:34.700                             : en:00:25:34.700
  52. 00:32:01.962                             : en:00:32:01.962
  53. 00:42:51.110                             : en:00:42:51.110
  54. 00:59:01.329                             : en:00:59:01.329
  55. 01:06:16.472                             : en:01:06:16.472
  56. 01:11:33.623                             : en:01:11:33.623
  57. 01:20:13.434                             : en:01:20:13.434
  58. 01:23:40.974                             : en:01:23:40.974
  59. 01:27:54.186                             : en:01:27:54.186
复制代码

复制代码

直到拂晓 Straight.on.Till.Morning.1972.1080p.BluRay.x264-SPOOKS 6.56GB-2.jpg







回复

使用道具 举报

懒得打字嘛,点击右侧快捷回复 【右侧内容,后台自定义】
您需要登录后才可以回帖 登录 | 立即加入

本版积分规则

Archiver|小黑屋| 蓝光电影网 |网站地图

Copyright © 2021 Comsenz Inc. Powered by 蓝光电影网

蓝光电影网

本站内容由用户自主分享和转载自互联网,转载目的在于传递更多信息,并不代表本网赞同其观点和对其真实性负责。

如有侵权、违反国家法律政策行为,请联系我们,我们会第一时间及时清除和处理!

举报反馈邮箱:[email protected]

快速回复 返回顶部 返回列表