找回密码

蓝光电影网

查看: 2080|回复: 4

[犯罪] 红雀/藏不住的秘密 Cardinals.2017.1080p.BluRay.x264.DTS-FGT 7.62GB

[复制链接]
蓝光币
623
发表于 2018-9-3 22:49:01 | 显示全部楼层 |阅读模式

红雀/藏不住的奥秘 Cardinals.2017.1080p.BluRay.x264.DTS-FGT 7.62GB-1.jpg
◎译  名 红雀/藏不住的奥秘
◎片  名 Cardinals
◎年  代 2017
◎产  地 加拿大 Canada
◎类  别 犯罪/惊悚
◎语  言 英语
◎上映日期 2017-09-07(加拿大)
◎豆瓣评分 /10 from 0 users
◎豆瓣链接 https://movie.douban.com/subject/26979342/
◎导  演 Grayson Moore / 艾丹·什普利 Aidan Shipley
◎主  演 凯蒂·宝蓝德 Katie Boland
      佩顿·肯迪尼 Peyton Kennedy
      Grace Glowicki
      诺亚.雷德 Noah Reid
      彼得·麦克内尔 Peter MacNeill
      Peter Spence
      萨拉·阿伯特 Sarah Abbott
      Marcia Bennett
      Ardon Bess
      Rain Clews-Fehr
      Catherine Fitch
      Jonathan Malen
      T·J·麦吉本 T.J. McGibbon
      Louise Nicol

◎简  介

  When Valerie (Sheila McCarthy) returns home from prison years after killing her neighbour in an apparent drunk driving accident, she wants nothing more than to move on — until the deceased’s son shows up at her door and it becomes clear that the past is not easily forgotten.

  1. Video
  2. ID                                       : 1
  3. Format                                   : AVC
  4. Format/Info                              : Advanced Video Codec
  5. Format profile                           : [url=/cdn-cgi/l/email-protection][email protected][/url]
  6. Format settings                          : CABAC / 4 Ref Frames
  7. Format settings, CABAC                   : Yes
  8. Format settings, ReFrames                : 4 frames
  9. Codec ID                                 : V_MPEG4/ISO/AVC
  10. Duration                                 : 1 h 23 min
  11. Bit rate                                 : 11.5 Mb/s
  12. Width                                    : 1 920 pixels
  13. Height                                   : 804 pixels
  14. Display aspect ratio                     : 2.40:1
  15. Frame rate mode                          : Constant
  16. Frame rate                               : 23.976 (24000/1001) FPS
  17. Color space                              : YUV
  18. Chroma subsampling                       : 4:2:0
  19. Bit depth                                : 8 bits
  20. Scan type                                : Progressive
  21. Bits/(Pixel*Frame)                       : 0.311
  22. Stream size                              : 6.73 GiB (88%)
  23. Title                                    : Cardinals.2017.1080p.BluRay.x264.DTS-FGT
  24. Writing library                          : x264 core 148 r2795M aaa9aa8
  25. Encoding settings                        : cabac=1 / ref=4 / deblock=1:-2:-2 / analyse=0x3:0x113 / me=umh / subme=9 / psy=1 / psy_rd=1.00:0.15 / mixed_ref=1 / me_range=16 / chroma_me=1 / trellis=2 / 8x8dct=1 / cqm=0 / deadzone=21,11 / fast_pskip=1 / chroma_qp_offset=-3 / threads=24 / lookahead_threads=3 / sliced_threads=0 / nr=0 / decimate=1 / interlaced=0 / bluray_compat=0 / constrained_intra=0 / bframes=3 / b_pyramid=2 / b_adapt=1 / b_bias=0 / direct=3 / weightb=1 / open_gop=0 / weightp=2 / keyint=250 / keyint_min=25 / scenecut=40 / intra_refresh=0 / rc_lookahead=50 / rc=2pass / mbtree=1 / bitrate=11500 / ratetol=1.0 / qcomp=0.60 / qpmin=0 / qpmax=69 / qpstep=4 / cplxblur=20.0 / qblur=0.5 / vbv_maxrate=31250 / vbv_bufsize=31250 / nal_hrd=none / filler=0 / ip_ratio=1.40 / aq=1:1.00
  26. Language                                 : English
  27. Default                                  : Yes
  28. Forced                                   : No

  29. Audio
  30. ID                                       : 2
  31. Format                                   : DTS
  32. Format/Info                              : Digital Theater Systems
  33. Codec ID                                 : A_DTS
  34. Duration                                 : 1 h 23 min
  35. Bit rate mode                            : Constant
  36. Bit rate                                 : 1 509 kb/s
  37. Channel(s)                               : 6 channels
  38. Channel positions                        : Front: L C R, Side: L R, LFE
  39. Sampling rate                            : 48.0 kHz
  40. Frame rate                               : 93.750 FPS (512 SPF)
  41. Bit depth                                : 24 bits
  42. Compression mode                         : Lossy
  43. Stream size                              : 905 MiB (12%)
  44. Title                                    : Cardinals.2017.1080p.BluRay.x264.DTS-FGT
  45. Language                                 : English
  46. Default                                  : Yes
  47. Forced                                   : No

  48. Text
  49. ID                                       : 3
  50. Format                                   : UTF-8
  51. Codec ID                                 : S_TEXT/UTF8
  52. Codec ID/Info                            : UTF-8 Plain Text
  53. Duration                                 : 1 h 18 min
  54. Bit rate                                 : 49 b/s
  55. Count of elements                        : 901
  56. Stream size                              : 28.5 KiB (0%)
  57. Language                                 : English
  58. Default                                  : Yes
  59. Forced                                   : No

  60. Menu
  61. 00:00:00.000                             : en:Chapter 1
  62. 00:08:27.924                             : en:Chapter 2
  63. 00:19:47.019                             : en:Chapter 3
  64. 00:26:56.990                             : en:Chapter 4
  65. 00:33:05.358                             : en:Chapter 5
  66. 00:40:08.031                             : en:Chapter 6
  67. 00:50:43.999                             : en:Chapter 7
  68. 01:00:26.122                             : en:Chapter 8
  69. 01:07:30.755                             : en:Chapter 9
  70. 01:17:39.572                             : en:Chapter 10
复制代码

复制代码

红雀/藏不住的奥秘 Cardinals.2017.1080p.BluRay.x264.DTS-FGT 7.62GB-2.png 红雀/藏不住的奥秘 Cardinals.2017.1080p.BluRay.x264.DTS-FGT 7.62GB-3.png 红雀/藏不住的奥秘 Cardinals.2017.1080p.BluRay.x264.DTS-FGT 7.62GB-4.png






回复

使用道具 举报

懒得打字嘛,点击右侧快捷回复 【右侧内容,后台自定义】
您需要登录后才可以回帖 登录 | 立即加入

本版积分规则

Archiver|小黑屋| 蓝光电影网 |网站地图

Copyright © 2021 Comsenz Inc. Powered by 蓝光电影网

蓝光电影网

本站内容由用户自主分享和转载自互联网,转载目的在于传递更多信息,并不代表本网赞同其观点和对其真实性负责。

如有侵权、违反国家法律政策行为,请联系我们,我们会第一时间及时清除和处理!

举报反馈邮箱:[email protected]

快速回复 返回顶部 返回列表