找回密码

蓝光电影网

查看: 2295|回复: 1

绝地战警/坏小子 Bad.Boys.1995.2160p.BluRay.REMUX.HEVC.DTS-HD.MA.TrueHD.7.1.Atmos-FGT 73.82GB

[复制链接]
蓝光币
623
发表于 2018-9-3 22:50:42 | 显示全部楼层 |阅读模式

绝地战警/坏小子 Bad.Boys.1995.2160p.BluRay.REMUX.HEVC.DTS-HD.MA.TrueHD.7.1.Atmos-FGT 73.82GB-1.jpg
◎译  名 绝地战警/坏小子/重案梦幻组
◎片  名 Bad Boys
◎年  代 1995
◎产  地 美国
◎类  别 笑剧/行动/犯罪
◎语  言 英语
◎上映日期 1995-04-07(美国)/1995-12(中国大陆)
◎豆瓣评分 7.4/10 from 24,988 users
◎豆瓣链接 https://movie.douban.com/subject/1296102/
◎片  长 119分钟
◎导  演 迈克尔·贝 Michael Bay
◎主  演 马丁·劳伦斯 Martin Lawrence
      威尔·史姑娘 Will Smith
      蒂娅·里欧妮 Téa Leoni
      切基·卡尤 Tchéky Karyo
      特里萨·兰德尔 Theresa Randle
      乔·潘托里亚诺 Joe Pantoliano
      丽莎·博伊尔 Lisa Boyle
      Michael Taliferro
      马克·麦考利 Marc Macaulay
      弗兰克·约翰·休斯 Frank John Hughes
      安娜·莱文 Anna Levine
      萨姆·阿耶尔斯 Sam Ayers
      玛格·海根柏格 Marg Helgenberger
      内斯特·塞拉诺 Nestor Serrano
      胡里奥·奥斯卡·门乔索 Julio Oscar Mechoso
      迈克尔·因佩里奥利 Michael Imperioli
      Saverio Guerra
      肖恩·托布  Shaun Toub
      Marty McSorley
      凯文·考利甘 Kevin Corrigan
      约翰·萨利 John Salley

◎简  介

  迈阿密警局的一对“黄金”同伴,顾家爱妻的好汉子宾纳(马丁?劳伦斯)和穿着鲜明风骚倜傥的富家子弟劳瑞(威尔?史姑娘),受命清查一桩代价上亿美圆的毒品证物失窃案,假如不能实时完成使命,他俩就得卷铺盖走人。
  在两人疲于奔命之际,该案件唯一的性感女证人打电话到警局宣称她愿意指认胁从,但条件是劳瑞必须出头庇护她,否则一切免谈,此时劳瑞恰好不在警局,宾纳为套取线索,情急智生滥竽充数。厥后,为了不落空女证人的信赖,两人只得将对换身份一事停止到底,宾纳在枪林弹雨及汽车追逐中贴身庇护女证人,劳瑞则来到他家中陪伴其妻。

  1. Video
  2. ID                                       : 1
  3. Format                                   : HEVC
  4. Format/Info                              : High Efficiency Video Coding
  5. Commercial name                          : HDR10
  6. Format profile                           : Main [url=/cdn-cgi/l/email-protection][email protected][/url]@High
  7. Codec ID                                 : V_MPEGH/ISO/HEVC
  8. Duration                                 : 1 h 58 min
  9. Bit rate                                 : 64.3 Mb/s
  10. Width                                    : 3 840 pixels
  11. Height                                   : 2 160 pixels
  12. Display aspect ratio                     : 16:9
  13. Frame rate mode                          : Constant
  14. Frame rate                               : 23.976 (24000/1001) FPS
  15. Color space                              : YUV
  16. Chroma subsampling                       : 4:2:0 (Type 2)
  17. Bit depth                                : 10 bits
  18. Bits/(Pixel*Frame)                       : 0.323
  19. Stream size                              : 53.4 GiB (72%)
  20. Title                                    : Bad.Boys.1995.2160p.BluRay.REMUX.HEVC.DTS-HD.MA.TrueHD.7.1.Atmos-FGT
  21. Default                                  : Yes
  22. Forced                                   : No
  23. Color range                              : Limited
  24. Color primaries                          : BT.2020
  25. Transfer characteristics                 : PQ
  26. Matrix coefficients                      : BT.2020 non-constant
  27. Mastering display color primaries        : Display P3
  28. Mastering display luminance              : min: 0.0050 cd/m2, max: 4000 cd/m2
  29. Maximum Content Light Level              : 6239 cd/m2
  30. Maximum Frame-Average Light Level        : 4864 cd/m2

  31. Audio #1
  32. ID                                       : 2
  33. Format                                   : TrueHD
  34. Format profile                           : TrueHD+Atmos / TrueHD
  35. Codec ID                                 : A_TRUEHD
  36. Duration                                 : 1 h 58 min
  37. Bit rate mode                            : Variable
  38. Bit rate                                 : 3 750 kb/s
  39. Maximum bit rate                         : 5 721 kb/s
  40. Channel(s)                               : Object Based / 8 channels
  41. Channel positions                        : Object Based / Front: L C R, Side: L R, Back: L R, LFE
  42. Sampling rate                            :  / 48.0 kHz
  43. Frame rate                               : 1 200.000 FPS (40 SPF)
  44. Compression mode                         : Lossless
  45. Stream size                              : 3.11 GiB (4%)
  46. Title                                    : Bad.Boys.1995.2160p.BluRay.REMUX.HEVC.DTS-HD.MA.TrueHD.7.1.Atmos-FGT
  47. Language                                 : English
  48. Default                                  : Yes
  49. Forced                                   : No

  50. Audio #2
  51. ID                                       : 3
  52. Format                                   : DTS
  53. Format/Info                              : Digital Theater Systems
  54. Format profile                           : MA / Core
  55. Codec ID                                 : A_DTS
  56. Duration                                 : 1 h 58 min
  57. Bit rate mode                            : Variable / Constant
  58. Bit rate                                 : 4 106 kb/s / 1 509 kb/s
  59. Channel(s)                               : 8 channels / 6 channels
  60. Channel positions                        : Front: L C R, Side: L R, Back: L R, LFE / Front: L C R, Side: L R, LFE
  61. Sampling rate                            : 48.0 kHz
  62. Frame rate                               : 93.750 FPS (512 SPF)
  63. Bit depth                                : 24 bits
  64. Compression mode                         : Lossless / Lossy
  65. Stream size                              : 3.41 GiB (5%)
  66. Title                                    : Bad.Boys.1995.2160p.BluRay.REMUX.HEVC.DTS-HD.MA.TrueHD.7.1.Atmos-FGT
  67. Language                                 : English
  68. Default                                  : No
  69. Forced                                   : No

  70. Audio #3
  71. ID                                       : 4
  72. Format                                   : AC-3
  73. Format/Info                              : Audio Coding 3
  74. Codec ID                                 : A_AC3
  75. Duration                                 : 1 h 58 min
  76. Bit rate mode                            : Constant
  77. Bit rate                                 : 640 kb/s
  78. Channel(s)                               : 6 channels
  79. Channel positions                        : Front: L C R, Side: L R, LFE
  80. Sampling rate                            : 48.0 kHz
  81. Frame rate                               : 31.250 FPS (1536 SPF)
  82. Bit depth                                : 16 bits
  83. Compression mode                         : Lossy
  84. Stream size                              : 544 MiB (1%)
  85. Title                                    : Bad.Boys.1995.2160p.BluRay.REMUX.HEVC.DTS-HD.MA.TrueHD.7.1.Atmos-FGT
  86. Language                                 : English
  87. Service kind                             : Complete Main
  88. Default                                  : No
  89. Forced                                   : No

  90. Audio #4
  91. ID                                       : 5
  92. Format                                   : AC-3
  93. Format/Info                              : Audio Coding 3
  94. Codec ID                                 : A_AC3
  95. Duration                                 : 1 h 58 min
  96. Bit rate mode                            : Constant
  97. Bit rate                                 : 640 kb/s
  98. Channel(s)                               : 6 channels
  99. Channel positions                        : Front: L C R, Side: L R, LFE
  100. Sampling rate                            : 48.0 kHz
  101. Frame rate                               : 31.250 FPS (1536 SPF)
  102. Bit depth                                : 16 bits
  103. Compression mode                         : Lossy
  104. Stream size                              : 544 MiB (1%)
  105. Title                                    : Bad.Boys.1995.2160p.BluRay.REMUX.HEVC.DTS-HD.MA.TrueHD.7.1.Atmos-FGT
  106. Language                                 : Czech
  107. Service kind                             : Complete Main
  108. Default                                  : No
  109. Forced                                   : No

  110. Audio #5
  111. ID                                       : 6
  112. Format                                   : AC-3
  113. Format/Info                              : Audio Coding 3
  114. Codec ID                                 : A_AC3
  115. Duration                                 : 1 h 58 min
  116. Bit rate mode                            : Constant
  117. Bit rate                                 : 192 kb/s
  118. Channel(s)                               : 2 channels
  119. Channel positions                        : Front: L R
  120. Sampling rate                            : 48.0 kHz
  121. Frame rate                               : 31.250 FPS (1536 SPF)
  122. Bit depth                                : 16 bits
  123. Compression mode                         : Lossy
  124. Stream size                              : 163 MiB (0%)
  125. Title                                    : Bad.Boys.1995.2160p.BluRay.REMUX.HEVC.DTS-HD.MA.TrueHD.7.1.Atmos-FGT
  126. Language                                 : French
  127. Service kind                             : Complete Main
  128. Default                                  : No
  129. Forced                                   : No

  130. Audio #6
  131. ID                                       : 7
  132. Format                                   : DTS
  133. Format/Info                              : Digital Theater Systems
  134. Format profile                           : MA / Core
  135. Codec ID                                 : A_DTS
  136. Duration                                 : 1 h 58 min
  137. Bit rate mode                            : Variable / Constant
  138. Bit rate                                 : 2 203 kb/s / 1 509 kb/s
  139. Channel(s)                               : 6 channels
  140. Channel positions                        : Front: L C R, Side: L R, LFE
  141. Sampling rate                            : 48.0 kHz
  142. Frame rate                               : 93.750 FPS (512 SPF)
  143. Bit depth                                : 16 bits
  144. Compression mode                         : Lossless / Lossy
  145. Stream size                              : 1.83 GiB (2%)
  146. Title                                    : Bad.Boys.1995.2160p.BluRay.REMUX.HEVC.DTS-HD.MA.TrueHD.7.1.Atmos-FGT
  147. Language                                 : French
  148. Default                                  : No
  149. Forced                                   : No

  150. Audio #7
  151. ID                                       : 8
  152. Format                                   : DTS
  153. Format/Info                              : Digital Theater Systems
  154. Format profile                           : MA / Core
  155. Codec ID                                 : A_DTS
  156. Duration                                 : 1 h 58 min
  157. Bit rate mode                            : Variable / Constant
  158. Bit rate                                 : 2 185 kb/s / 1 509 kb/s
  159. Channel(s)                               : 6 channels
  160. Channel positions                        : Front: L C R, Side: L R, LFE
  161. Sampling rate                            : 48.0 kHz
  162. Frame rate                               : 93.750 FPS (512 SPF)
  163. Bit depth                                : 16 bits
  164. Compression mode                         : Lossless / Lossy
  165. Stream size                              : 1.81 GiB (2%)
  166. Title                                    : Bad.Boys.1995.2160p.BluRay.REMUX.HEVC.DTS-HD.MA.TrueHD.7.1.Atmos-FGT
  167. Language                                 : German
  168. Default                                  : No
  169. Forced                                   : No

  170. Audio #8
  171. ID                                       : 9
  172. Format                                   : AC-3
  173. Format/Info                              : Audio Coding 3
  174. Codec ID                                 : A_AC3
  175. Duration                                 : 1 h 58 min
  176. Bit rate mode                            : Constant
  177. Bit rate                                 : 640 kb/s
  178. Channel(s)                               : 6 channels
  179. Channel positions                        : Front: L C R, Side: L R, LFE
  180. Sampling rate                            : 48.0 kHz
  181. Frame rate                               : 31.250 FPS (1536 SPF)
  182. Bit depth                                : 16 bits
  183. Compression mode                         : Lossy
  184. Stream size                              : 544 MiB (1%)
  185. Title                                    : Bad.Boys.1995.2160p.BluRay.REMUX.HEVC.DTS-HD.MA.TrueHD.7.1.Atmos-FGT
  186. Language                                 : Hungarian
  187. Service kind                             : Complete Main
  188. Default                                  : No
  189. Forced                                   : No

  190. Audio #9
  191. ID                                       : 10
  192. Format                                   : DTS
  193. Format/Info                              : Digital Theater Systems
  194. Format profile                           : MA / Core
  195. Codec ID                                 : A_DTS
  196. Duration                                 : 1 h 58 min
  197. Bit rate mode                            : Variable / Constant
  198. Bit rate                                 : 2 165 kb/s / 1 509 kb/s
  199. Channel(s)                               : 6 channels
  200. Channel positions                        : Front: L C R, Side: L R, LFE
  201. Sampling rate                            : 48.0 kHz
  202. Frame rate                               : 93.750 FPS (512 SPF)
  203. Bit depth                                : 16 bits
  204. Compression mode                         : Lossless / Lossy
  205. Stream size                              : 1.80 GiB (2%)
  206. Title                                    : Bad.Boys.1995.2160p.BluRay.REMUX.HEVC.DTS-HD.MA.TrueHD.7.1.Atmos-FGT
  207. Language                                 : Italian
  208. Default                                  : No
  209. Forced                                   : No

  210. Audio #10
  211. ID                                       : 11
  212. Format                                   : DTS
  213. Format/Info                              : Digital Theater Systems
  214. Format profile                           : MA / Core
  215. Codec ID                                 : A_DTS
  216. Duration                                 : 1 h 58 min
  217. Bit rate mode                            : Variable / Constant
  218. Bit rate                                 : 2 225 kb/s / 1 509 kb/s
  219. Channel(s)                               : 6 channels
  220. Channel positions                        : Front: L C R, Side: L R, LFE
  221. Sampling rate                            : 48.0 kHz
  222. Frame rate                               : 93.750 FPS (512 SPF)
  223. Bit depth                                : 16 bits
  224. Compression mode                         : Lossless / Lossy
  225. Stream size                              : 1.85 GiB (3%)
  226. Title                                    : Bad.Boys.1995.2160p.BluRay.REMUX.HEVC.DTS-HD.MA.TrueHD.7.1.Atmos-FGT
  227. Language                                 : Japanese
  228. Default                                  : No
  229. Forced                                   : No

  230. Audio #11
  231. ID                                       : 12
  232. Format                                   : AC-3
  233. Format/Info                              : Audio Coding 3
  234. Codec ID                                 : A_AC3
  235. Duration                                 : 1 h 58 min
  236. Bit rate mode                            : Constant
  237. Bit rate                                 : 640 kb/s
  238. Channel(s)                               : 6 channels
  239. Channel positions                        : Front: L C R, Side: L R, LFE
  240. Sampling rate                            : 48.0 kHz
  241. Frame rate                               : 31.250 FPS (1536 SPF)
  242. Bit depth                                : 16 bits
  243. Compression mode                         : Lossy
  244. Stream size                              : 544 MiB (1%)
  245. Title                                    : Bad.Boys.1995.2160p.BluRay.REMUX.HEVC.DTS-HD.MA.TrueHD.7.1.Atmos-FGT
  246. Language                                 : Polish
  247. Service kind                             : Complete Main
  248. Default                                  : No
  249. Forced                                   : No

  250. Audio #12
  251. ID                                       : 13
  252. Format                                   : AC-3
  253. Format/Info                              : Audio Coding 3
  254. Codec ID                                 : A_AC3
  255. Duration                                 : 1 h 58 min
  256. Bit rate mode                            : Constant
  257. Bit rate                                 : 640 kb/s
  258. Channel(s)                               : 6 channels
  259. Channel positions                        : Front: L C R, Side: L R, LFE
  260. Sampling rate                            : 48.0 kHz
  261. Frame rate                               : 31.250 FPS (1536 SPF)
  262. Bit depth                                : 16 bits
  263. Compression mode                         : Lossy
  264. Stream size                              : 544 MiB (1%)
  265. Title                                    : Bad.Boys.1995.2160p.BluRay.REMUX.HEVC.DTS-HD.MA.TrueHD.7.1.Atmos-FGT
  266. Language                                 : Portuguese
  267. Service kind                             : Complete Main
  268. Default                                  : No
  269. Forced                                   : No

  270. Audio #13
  271. ID                                       : 14
  272. Format                                   : AC-3
  273. Format/Info                              : Audio Coding 3
  274. Codec ID                                 : A_AC3
  275. Duration                                 : 1 h 58 min
  276. Bit rate mode                            : Constant
  277. Bit rate                                 : 640 kb/s
  278. Channel(s)                               : 6 channels
  279. Channel positions                        : Front: L C R, Side: L R, LFE
  280. Sampling rate                            : 48.0 kHz
  281. Frame rate                               : 31.250 FPS (1536 SPF)
  282. Bit depth                                : 16 bits
  283. Compression mode                         : Lossy
  284. Stream size                              : 544 MiB (1%)
  285. Title                                    : Bad.Boys.1995.2160p.BluRay.REMUX.HEVC.DTS-HD.MA.TrueHD.7.1.Atmos-FGT
  286. Language                                 : Russian
  287. Service kind                             : Complete Main
  288. Default                                  : No
  289. Forced                                   : No

  290. Audio #14
  291. ID                                       : 15
  292. Format                                   : DTS
  293. Format/Info                              : Digital Theater Systems
  294. Format profile                           : MA / Core
  295. Codec ID                                 : A_DTS
  296. Duration                                 : 1 h 58 min
  297. Bit rate mode                            : Variable / Constant
  298. Bit rate                                 : 2 193 kb/s / 1 509 kb/s
  299. Channel(s)                               : 6 channels
  300. Channel positions                        : Front: L C R, Side: L R, LFE
  301. Sampling rate                            : 48.0 kHz
  302. Frame rate                               : 93.750 FPS (512 SPF)
  303. Bit depth                                : 16 bits
  304. Compression mode                         : Lossless / Lossy
  305. Stream size                              : 1.82 GiB (2%)
  306. Title                                    : Bad.Boys.1995.2160p.BluRay.REMUX.HEVC.DTS-HD.MA.TrueHD.7.1.Atmos-FGT
  307. Language                                 : Spanish
  308. Default                                  : No
  309. Forced                                   : No

  310. Audio #15
  311. ID                                       : 16
  312. Format                                   : AC-3
  313. Format/Info                              : Audio Coding 3
  314. Codec ID                                 : A_AC3
  315. Duration                                 : 1 h 58 min
  316. Bit rate mode                            : Constant
  317. Bit rate                                 : 640 kb/s
  318. Channel(s)                               : 6 channels
  319. Channel positions                        : Front: L C R, Side: L R, LFE
  320. Sampling rate                            : 48.0 kHz
  321. Frame rate                               : 31.250 FPS (1536 SPF)
  322. Bit depth                                : 16 bits
  323. Compression mode                         : Lossy
  324. Stream size                              : 544 MiB (1%)
  325. Title                                    : Bad.Boys.1995.2160p.BluRay.REMUX.HEVC.DTS-HD.MA.TrueHD.7.1.Atmos-FGT
  326. Language                                 : Spanish
  327. Service kind                             : Complete Main
  328. Default                                  : No
  329. Forced                                   : No

  330. Audio #16
  331. ID                                       : 17
  332. Format                                   : AC-3
  333. Format/Info                              : Audio Coding 3
  334. Codec ID                                 : A_AC3
  335. Duration                                 : 1 h 58 min
  336. Bit rate mode                            : Constant
  337. Bit rate                                 : 640 kb/s
  338. Channel(s)                               : 6 channels
  339. Channel positions                        : Front: L C R, Side: L R, LFE
  340. Sampling rate                            : 48.0 kHz
  341. Frame rate                               : 31.250 FPS (1536 SPF)
  342. Bit depth                                : 16 bits
  343. Compression mode                         : Lossy
  344. Stream size                              : 544 MiB (1%)
  345. Title                                    : Bad.Boys.1995.2160p.BluRay.REMUX.HEVC.DTS-HD.MA.TrueHD.7.1.Atmos-FGT
  346. Language                                 : Thai
  347. Service kind                             : Complete Main
  348. Default                                  : No
  349. Forced                                   : No

  350. Text #1
  351. ID                                       : 18
  352. Format                                   : PGS
  353. Muxing mode                              : zlib
  354. Codec ID                                 : S_HDMV/PGS
  355. Codec ID/Info                            : Picture based subtitle format used on BDs/HD-DVDs
  356. Duration                                 : 1 h 54 min
  357. Bit rate                                 : 38.7 kb/s
  358. Count of elements                        : 3318
  359. Stream size                              : 31.6 MiB (0%)
  360. Title                                    : English-PGS
  361. Language                                 : English
  362. Default                                  : Yes
  363. Forced                                   : No

  364. Text #2
  365. ID                                       : 19
  366. Format                                   : PGS
  367. Muxing mode                              : zlib
  368. Codec ID                                 : S_HDMV/PGS
  369. Codec ID/Info                            : Picture based subtitle format used on BDs/HD-DVDs
  370. Duration                                 : 1 h 57 min
  371. Bit rate                                 : 46.8 kb/s
  372. Count of elements                        : 3945
  373. Stream size                              : 39.3 MiB (0%)
  374. Title                                    : English-SDH-PGS
  375. Language                                 : English
  376. Default                                  : No
  377. Forced                                   : No

  378. Text #3
  379. ID                                       : 20
  380. Format                                   : PGS
  381. Muxing mode                              : zlib
  382. Codec ID                                 : S_HDMV/PGS
  383. Codec ID/Info                            : Picture based subtitle format used on BDs/HD-DVDs
  384. Duration                                 : 1 h 54 min
  385. Bit rate                                 : 38.7 kb/s
  386. Count of elements                        : 3318
  387. Stream size                              : 31.6 MiB (0%)
  388. Title                                    : English-PGS
  389. Language                                 : English
  390. Default                                  : No
  391. Forced                                   : No

  392. Text #4
  393. ID                                       : 21
  394. Format                                   : PGS
  395. Muxing mode                              : zlib
  396. Codec ID                                 : S_HDMV/PGS
  397. Codec ID/Info                            : Picture based subtitle format used on BDs/HD-DVDs
  398. Duration                                 : 1 h 57 min
  399. Bit rate                                 : 46.9 kb/s
  400. Count of elements                        : 3945
  401. Stream size                              : 39.3 MiB (0%)
  402. Title                                    : English-SDH-PGS
  403. Language                                 : English
  404. Default                                  : No
  405. Forced                                   : No

  406. Text #5
  407. ID                                       : 22
  408. Format                                   : PGS
  409. Muxing mode                              : zlib
  410. Codec ID                                 : S_HDMV/PGS
  411. Codec ID/Info                            : Picture based subtitle format used on BDs/HD-DVDs
  412. Duration                                 : 1 h 54 min
  413. Bit rate                                 : 18.3 kb/s
  414. Count of elements                        : 3396
  415. Stream size                              : 14.9 MiB (0%)
  416. Title                                    : Arabic-PGS
  417. Language                                 : Arabic
  418. Default                                  : No
  419. Forced                                   : No

  420. Text #6
  421. ID                                       : 23
  422. Format                                   : PGS
  423. Muxing mode                              : zlib
  424. Codec ID                                 : S_HDMV/PGS
  425. Codec ID/Info                            : Picture based subtitle format used on BDs/HD-DVDs
  426. Duration                                 : 1 h 54 min
  427. Bit rate                                 : 29.9 kb/s
  428. Count of elements                        : 3526
  429. Stream size                              : 24.4 MiB (0%)
  430. Title                                    : Chinese-PGS
  431. Language                                 : Chinese
  432. Default                                  : No
  433. Forced                                   : No

  434. Text #7
  435. ID                                       : 24
  436. Format                                   : PGS
  437. Muxing mode                              : zlib
  438. Codec ID                                 : S_HDMV/PGS
  439. Codec ID/Info                            : Picture based subtitle format used on BDs/HD-DVDs
  440. Duration                                 : 1 h 54 min
  441. Bit rate                                 : 30.0 kb/s
  442. Count of elements                        : 3526
  443. Stream size                              : 24.4 MiB (0%)
  444. Title                                    : Chinese-PGS
  445. Language                                 : Chinese
  446. Default                                  : No
  447. Forced                                   : No

  448. Text #8
  449. ID                                       : 25
  450. Format                                   : PGS
  451. Muxing mode                              : zlib
  452. Codec ID                                 : S_HDMV/PGS
  453. Codec ID/Info                            : Picture based subtitle format used on BDs/HD-DVDs
  454. Duration                                 : 1 h 54 min
  455. Bit rate                                 : 29.7 kb/s
  456. Count of elements                        : 3472
  457. Stream size                              : 24.2 MiB (0%)
  458. Title                                    : Czech-PGS
  459. Language                                 : Czech
  460. Default                                  : No
  461. Forced                                   : No

  462. Text #9
  463. ID                                       : 26
  464. Format                                   : PGS
  465. Muxing mode                              : zlib
  466. Codec ID                                 : S_HDMV/PGS
  467. Codec ID/Info                            : Picture based subtitle format used on BDs/HD-DVDs
  468. Duration                                 : 1 h 54 min
  469. Bit rate                                 : 37.3 kb/s
  470. Count of elements                        : 3418
  471. Stream size                              : 30.5 MiB (0%)
  472. Title                                    : Danish-PGS
  473. Language                                 : Danish
  474. Default                                  : No
  475. Forced                                   : No

  476. Text #10
  477. ID                                       : 27
  478. Format                                   : PGS
  479. Muxing mode                              : zlib
  480. Codec ID                                 : S_HDMV/PGS
  481. Codec ID/Info                            : Picture based subtitle format used on BDs/HD-DVDs
  482. Duration                                 : 1 h 54 min
  483. Bit rate                                 : 33.5 kb/s
  484. Count of elements                        : 3382
  485. Stream size                              : 27.3 MiB (0%)
  486. Title                                    : Dutch-PGS
  487. Language                                 : Dutch
  488. Default                                  : No
  489. Forced                                   : No

  490. Text #11
  491. ID                                       : 28
  492. Format                                   : PGS
  493. Muxing mode                              : zlib
  494. Codec ID                                 : S_HDMV/PGS
  495. Codec ID/Info                            : Picture based subtitle format used on BDs/HD-DVDs
  496. Duration                                 : 1 h 54 min
  497. Bit rate                                 : 35.2 kb/s
  498. Count of elements                        : 3084
  499. Stream size                              : 28.7 MiB (0%)
  500. Title                                    : Finnish-PGS
  501. Language                                 : Finnish
  502. Default                                  : No
  503. Forced                                   : No

  504. Text #12
  505. ID                                       : 29
  506. Format                                   : PGS
  507. Muxing mode                              : zlib
  508. Codec ID                                 : S_HDMV/PGS
  509. Codec ID/Info                            : Picture based subtitle format used on BDs/HD-DVDs
  510. Duration                                 : 1 h 57 min
  511. Bit rate                                 : 31.6 kb/s
  512. Count of elements                        : 3390
  513. Stream size                              : 26.6 MiB (0%)
  514. Title                                    : French-PGS
  515. Language                                 : French
  516. Default                                  : No
  517. Forced                                   : No

  518. Text #13
  519. ID                                       : 30
  520. Format                                   : PGS
  521. Muxing mode                              : zlib
  522. Codec ID                                 : S_HDMV/PGS
  523. Codec ID/Info                            : Picture based subtitle format used on BDs/HD-DVDs
  524. Duration                                 : 1 h 54 min
  525. Bit rate                                 : 38.7 kb/s
  526. Count of elements                        : 3452
  527. Stream size                              : 31.5 MiB (0%)
  528. Title                                    : German-PGS
  529. Language                                 : German
  530. Default                                  : No
  531. Forced                                   : No

  532. Text #14
  533. ID                                       : 31
  534. Format                                   : PGS
  535. Muxing mode                              : zlib
  536. Codec ID                                 : S_HDMV/PGS
  537. Codec ID/Info                            : Picture based subtitle format used on BDs/HD-DVDs
  538. Duration                                 : 1 h 54 min
  539. Bit rate                                 : 30.6 kb/s
  540. Count of elements                        : 3260
  541. Stream size                              : 25.0 MiB (0%)
  542. Title                                    : Greek-PGS
  543. Language                                 : Greek
  544. Default                                  : No
  545. Forced                                   : No

  546. Text #15
  547. ID                                       : 32
  548. Format                                   : PGS
  549. Muxing mode                              : zlib
  550. Codec ID                                 : S_HDMV/PGS
  551. Codec ID/Info                            : Picture based subtitle format used on BDs/HD-DVDs
  552. Duration                                 : 1 h 54 min
  553. Bit rate                                 : 33.6 kb/s
  554. Count of elements                        : 3376
  555. Stream size                              : 27.4 MiB (0%)
  556. Title                                    : Hungarian-PGS
  557. Language                                 : Hungarian
  558. Default                                  : No
  559. Forced                                   : No

  560. Text #16
  561. ID                                       : 33
  562. Format                                   : PGS
  563. Muxing mode                              : zlib
  564. Codec ID                                 : S_HDMV/PGS
  565. Codec ID/Info                            : Picture based subtitle format used on BDs/HD-DVDs
  566. Duration                                 : 1 h 54 min
  567. Bit rate                                 : 41.6 kb/s
  568. Count of elements                        : 3392
  569. Stream size                              : 33.9 MiB (0%)
  570. Title                                    : Italian-PGS
  571. Language                                 : Italian
  572. Default                                  : No
  573. Forced                                   : No

  574. Text #17
  575. ID                                       : 34
  576. Format                                   : PGS
  577. Muxing mode                              : zlib
  578. Codec ID                                 : S_HDMV/PGS
  579. Codec ID/Info                            : Picture based subtitle format used on BDs/HD-DVDs
  580. Duration                                 : 1 h 53 min
  581. Bit rate                                 : 27.2 kb/s
  582. Count of elements                        : 3237
  583. Stream size                              : 22.2 MiB (0%)
  584. Title                                    : Japanese-PGS
  585. Language                                 : Japanese
  586. Default                                  : No
  587. Forced                                   : No

  588. Text #18
  589. ID                                       : 35
  590. Format                                   : PGS
  591. Muxing mode                              : zlib
  592. Codec ID                                 : S_HDMV/PGS
  593. Codec ID/Info                            : Picture based subtitle format used on BDs/HD-DVDs
  594. Duration                                 : 1 h 54 min
  595. Bit rate                                 : 30.2 kb/s
  596. Count of elements                        : 3346
  597. Stream size                              : 24.7 MiB (0%)
  598. Title                                    : Korean-PGS
  599. Language                                 : Korean
  600. Default                                  : No
  601. Forced                                   : No

  602. Text #19
  603. ID                                       : 36
  604. Format                                   : PGS
  605. Muxing mode                              : zlib
  606. Codec ID                                 : S_HDMV/PGS
  607. Codec ID/Info                            : Picture based subtitle format used on BDs/HD-DVDs
  608. Duration                                 : 1 h 54 min
  609. Bit rate                                 : 32.8 kb/s
  610. Count of elements                        : 3468
  611. Stream size                              : 26.7 MiB (0%)
  612. Title                                    : Norwegian-PGS
  613. Language                                 : Norwegian
  614. Default                                  : No
  615. Forced                                   : No

  616. Text #20
  617. ID                                       : 37
  618. Format                                   : PGS
  619. Muxing mode                              : zlib
  620. Codec ID                                 : S_HDMV/PGS
  621. Codec ID/Info                            : Picture based subtitle format used on BDs/HD-DVDs
  622. Duration                                 : 1 h 54 min
  623. Bit rate                                 : 28.1 kb/s
  624. Count of elements                        : 3250
  625. Stream size                              : 22.9 MiB (0%)
  626. Title                                    : Polish-PGS
  627. Language                                 : Polish
  628. Default                                  : No
  629. Forced                                   : No

  630. Text #21
  631. ID                                       : 38
  632. Format                                   : PGS
  633. Muxing mode                              : zlib
  634. Codec ID                                 : S_HDMV/PGS
  635. Codec ID/Info                            : Picture based subtitle format used on BDs/HD-DVDs
  636. Duration                                 : 1 h 54 min
  637. Bit rate                                 : 30.9 kb/s
  638. Count of elements                        : 2748
  639. Stream size                              : 25.2 MiB (0%)
  640. Title                                    : Portuguese-PGS
  641. Language                                 : Portuguese
  642. Default                                  : No
  643. Forced                                   : No

  644. Text #22
  645. ID                                       : 39
  646. Format                                   : PGS
  647. Muxing mode                              : zlib
  648. Codec ID                                 : S_HDMV/PGS
  649. Codec ID/Info                            : Picture based subtitle format used on BDs/HD-DVDs
  650. Duration                                 : 1 h 54 min
  651. Bit rate                                 : 34.9 kb/s
  652. Count of elements                        : 3428
  653. Stream size                              : 28.5 MiB (0%)
  654. Title                                    : Portuguese-PGS
  655. Language                                 : Portuguese
  656. Default                                  : No
  657. Forced                                   : No

  658. Text #23
  659. ID                                       : 40
  660. Format                                   : PGS
  661. Muxing mode                              : zlib
  662. Codec ID                                 : S_HDMV/PGS
  663. Codec ID/Info                            : Picture based subtitle format used on BDs/HD-DVDs
  664. Duration                                 : 1 h 54 min
  665. Bit rate                                 : 37.4 kb/s
  666. Count of elements                        : 3324
  667. Stream size                              : 30.5 MiB (0%)
  668. Title                                    : Romanian-PGS
  669. Language                                 : Romanian
  670. Default                                  : No
  671. Forced                                   : No

  672. Text #24
  673. ID                                       : 41
  674. Format                                   : PGS
  675. Muxing mode                              : zlib
  676. Codec ID                                 : S_HDMV/PGS
  677. Codec ID/Info                            : Picture based subtitle format used on BDs/HD-DVDs
  678. Duration                                 : 1 h 54 min
  679. Bit rate                                 : 37.2 kb/s
  680. Count of elements                        : 3360
  681. Stream size                              : 30.4 MiB (0%)
  682. Title                                    : Slovak-PGS
  683. Language                                 : Slovak
  684. Default                                  : No
  685. Forced                                   : No

  686. Text #25
  687. ID                                       : 42
  688. Format                                   : PGS
  689. Muxing mode                              : zlib
  690. Codec ID                                 : S_HDMV/PGS
  691. Codec ID/Info                            : Picture based subtitle format used on BDs/HD-DVDs
  692. Duration                                 : 1 h 54 min
  693. Bit rate                                 : 36.6 kb/s
  694. Count of elements                        : 3386
  695. Stream size                              : 29.8 MiB (0%)
  696. Title                                    : Spanish-PGS
  697. Language                                 : Spanish
  698. Default                                  : No
  699. Forced                                   : No

  700. Text #26
  701. ID                                       : 43
  702. Format                                   : PGS
  703. Muxing mode                              : zlib
  704. Codec ID                                 : S_HDMV/PGS
  705. Codec ID/Info                            : Picture based subtitle format used on BDs/HD-DVDs
  706. Duration                                 : 1 h 54 min
  707. Bit rate                                 : 37.7 kb/s
  708. Count of elements                        : 3216
  709. Stream size                              : 30.8 MiB (0%)
  710. Title                                    : Spanish-PGS
  711. Language                                 : Spanish
  712. Default                                  : No
  713. Forced                                   : No

  714. Text #27
  715. ID                                       : 44
  716. Format                                   : PGS
  717. Muxing mode                              : zlib
  718. Codec ID                                 : S_HDMV/PGS
  719. Codec ID/Info                            : Picture based subtitle format used on BDs/HD-DVDs
  720. Duration                                 : 1 h 54 min
  721. Bit rate                                 : 32.3 kb/s
  722. Count of elements                        : 3430
  723. Stream size                              : 26.4 MiB (0%)
  724. Title                                    : Swedish-PGS
  725. Language                                 : Swedish
  726. Default                                  : No
  727. Forced                                   : No

  728. Text #28
  729. ID                                       : 45
  730. Format                                   : PGS
  731. Muxing mode                              : zlib
  732. Codec ID                                 : S_HDMV/PGS
  733. Codec ID/Info                            : Picture based subtitle format used on BDs/HD-DVDs
  734. Duration                                 : 1 h 54 min
  735. Bit rate                                 : 32.3 kb/s
  736. Count of elements                        : 3526
  737. Stream size                              : 26.3 MiB (0%)
  738. Title                                    : Thai-PGS
  739. Language                                 : Thai
  740. Default                                  : No
  741. Forced                                   : No

  742. Text #29
  743. ID                                       : 46
  744. Format                                   : PGS
  745. Muxing mode                              : zlib
  746. Codec ID                                 : S_HDMV/PGS
  747. Codec ID/Info                            : Picture based subtitle format used on BDs/HD-DVDs
  748. Duration                                 : 1 h 54 min
  749. Bit rate                                 : 32.4 kb/s
  750. Count of elements                        : 3346
  751. Stream size                              : 26.4 MiB (0%)
  752. Title                                    : Turkish-PGS
  753. Language                                 : Turkish
  754. Default                                  : No
  755. Forced                                   : No

  756. Text #30
  757. ID                                       : 47
  758. Format                                   : PGS
  759. Muxing mode                              : zlib
  760. Codec ID                                 : S_HDMV/PGS
  761. Codec ID/Info                            : Picture based subtitle format used on BDs/HD-DVDs
  762. Duration                                 : 1 s 585 ms
  763. Bit rate                                 : 31.9 kb/s
  764. Count of elements                        : 2
  765. Stream size                              : 6.17 KiB (0%)
  766. Title                                    : French-FORCED-PGS
  767. Language                                 : French
  768. Default                                  : No
  769. Forced                                   : No

  770. Text #31
  771. ID                                       : 48
  772. Format                                   : PGS
  773. Muxing mode                              : zlib
  774. Codec ID                                 : S_HDMV/PGS
  775. Codec ID/Info                            : Picture based subtitle format used on BDs/HD-DVDs
  776. Duration                                 : 1 h 41 min
  777. Bit rate                                 : 122 b/s
  778. Count of elements                        : 18
  779. Stream size                              : 91.2 KiB (0%)
  780. Title                                    : Japanese-FORCED-PGS
  781. Language                                 : Japanese
  782. Default                                  : No
  783. Forced                                   : No

  784. Text #32
  785. ID                                       : 49
  786. Format                                   : PGS
  787. Muxing mode                              : zlib
  788. Codec ID                                 : S_HDMV/PGS
  789. Codec ID/Info                            : Picture based subtitle format used on BDs/HD-DVDs
  790. Duration                                 : 1 h 36 min
  791. Bit rate                                 : 107 b/s
  792. Count of elements                        : 12
  793. Stream size                              : 76.0 KiB (0%)
  794. Title                                    : Russian-FORCED-PGS
  795. Language                                 : Russian
  796. Default                                  : No
  797. Forced                                   : No

  798. Menu
  799. 00:00:00.000                             : :Chapter 1
  800. 00:05:07.473                             : :Chapter 2
  801. 00:12:01.971                             : :Chapter 3
  802. 00:17:38.098                             : :Chapter 4
  803. 00:23:33.203                             : :Chapter 5
  804. 00:31:31.764                             : :Chapter 6
  805. 00:41:09.133                             : :Chapter 7
  806. 00:47:35.310                             : :Chapter 8
  807. 00:54:37.357                             : :Chapter 9
  808. 01:04:05.675                             : :Chapter 10
  809. 01:13:49.800                             : :Chapter 11
  810. 01:20:21.483                             : :Chapter 12
  811. 01:27:58.523                             : :Chapter 13
  812. 01:34:54.271                             : :Chapter 14
  813. 01:43:09.308                             : :Chapter 15
  814. 01:50:51.353                             : :Chapter 16
复制代码

复制代码

绝地战警/坏小子 Bad.Boys.1995.2160p.BluRay.REMUX.HEVC.DTS-HD.MA.TrueHD.7.1.Atmos-FGT 73.82GB-2.png 绝地战警/坏小子 Bad.Boys.1995.2160p.BluRay.REMUX.HEVC.DTS-HD.MA.TrueHD.7.1.Atmos-FGT 73.82GB-3.png 绝地战警/坏小子 Bad.Boys.1995.2160p.BluRay.REMUX.HEVC.DTS-HD.MA.TrueHD.7.1.Atmos-FGT 73.82GB-4.png





回复

使用道具 举报

蓝光币
323
发表于 2018-9-4 07:58:42 | 显示全部楼层
强烈支持楼主ing……
回复 支持 反对

使用道具 举报

懒得打字嘛,点击右侧快捷回复 【右侧内容,后台自定义】
您需要登录后才可以回帖 登录 | 立即加入

本版积分规则

Archiver|小黑屋| 蓝光电影网 |网站地图

Copyright © 2021 Comsenz Inc. Powered by 蓝光电影网

蓝光电影网

本站内容由用户自主分享和转载自互联网,转载目的在于传递更多信息,并不代表本网赞同其观点和对其真实性负责。

如有侵权、违反国家法律政策行为,请联系我们,我们会第一时间及时清除和处理!

举报反馈邮箱:[email protected]

快速回复 返回顶部 返回列表