找回密码

蓝光电影网

查看: 1654|回复: 8

[剧情] 杀戮战场/战火屠城 The.Killing.Fields.1984.1080p.BluRay.x264-TiMELORDS 10.94GB

[复制链接]
蓝光币
623
发表于 2018-9-4 09:41:52 | 显示全部楼层 |阅读模式

杀戮疆场/烽火屠城 The.Killing.Fields.1984.1080p.BluRay.x264-TiMELORDS 10.94GB-1.jpg
◎译  名 杀戮疆场/烽火屠城/杀戮之地
◎片  名 The Killing Fields
◎年  代 1984
◎产  地 英国
◎类  别 剧情/历史/战争
◎语  言 英语/法语/高棉语
◎上映日期 1984-11-02
◎豆瓣评分 8.3/10 from 3,707 users
◎豆瓣链接 https://movie.douban.com/subject/1296617/
◎片  长 141 分钟
◎导  演 罗兰·约菲 Roland Joffé
◎主  演 萨姆·沃特森 Sam Waterston
      吴汉润 Haing S. Ngor
      约翰·马尔科维奇 John Malkovich
      朱利安·山德斯 Julian Sands
      格雷格·T·尼尔森 Craig T. Nelson

◎简  介

  1972年,美军在越南溃败撤离柬埔寨以后,纽约时报驻柬埔寨的战地记者辛尼(萨姆·沃特森 Sam Waterston饰)仍留在当地继续采访。柬埔寨人潘迪(吴汉润 Haing S. Ngor饰)是辛尼确当地翻译兼助手。辛尼在潘迪的帮助下,屡次逢凶化吉逃过鬼门关。两人在烽火纷飞中结下了深厚的友谊。1975年,红色高棉占据金边。辛尼得以满身而退,但是潘迪却由于没有护照而被捕,起头了生不如死的天堂生活。在柬共的劳动革新中,潘迪目击了红色高棉政权的残暴血腥,遭到了非人的报酬。1978年,越共入侵柬埔寨,潘迪乘隙流亡到泰国边境,与一向在寻觅他的老朋友辛尼重逢。
  本片荣获1985年第57届奥斯卡金像奖最好男配角、最好摄影和最好电影剪辑三项大奖。

◎获奖情况

  第57届奥斯卡金像奖  (1985)
  最好影片(提名) 大卫·普特南
  最好导演(提名) 罗兰·约菲
  最好男配角(提名) 萨姆·沃特森
  最好男配角 吴汉润
  最好改编剧本(提名) 布鲁斯·罗宾逊
  最好摄影 克里斯·门杰斯
  最好剪辑 Jim Clark

  1. Video
  2. ID                                       : 1
  3. Format                                   : AVC
  4. Format/Info                              : Advanced Video Codec
  5. Format profile                           : [url=/cdn-cgi/l/email-protection][email protected][/url]
  6. Format settings                          : CABAC / 4 Ref Frames
  7. Format settings, CABAC                   : Yes
  8. Format settings, ReFrames                : 4 frames
  9. Codec ID                                 : V_MPEG4/ISO/AVC
  10. Duration                                 : 2 h 21 min
  11. Bit rate                                 : 9 525 kb/s
  12. Width                                    : 1 912 pixels
  13. Height                                   : 1 080 pixels
  14. Display aspect ratio                     : 16:9
  15. Frame rate mode                          : Constant
  16. Frame rate                               : 23.976 (24000/1001) FPS
  17. Color space                              : YUV
  18. Chroma subsampling                       : 4:2:0
  19. Bit depth                                : 8 bits
  20. Scan type                                : Progressive
  21. Bits/(Pixel*Frame)                       : 0.192
  22. Stream size                              : 9.22 GiB (84%)
  23. Writing library                          : x264 core 78 r1318 fe83a90
  24. Encoding settings                        : cabac=1 / ref=4 / deblock=1:0:0 / analyse=0x3:0x133 / me=umh / subme=7 / psy=1 / psy_rd=1.0:0.0 / mixed_ref=1 / me_range=16 / chroma_me=1 / trellis=1 / 8x8dct=1 / cqm=0 / deadzone=21,11 / chroma_qp_offset=-2 / threads=12 / nr=0 / decimate=0 / mbaff=0 / constrained_intra=0 / bframes=3 / b_pyramid=0 / b_adapt=1 / b_bias=0 / direct=1 / wpredb=1 / keyint=250 / keyint_min=25 / scenecut=40 / rc=2pass / mbtree=0 / bitrate=9525 / ratetol=1.0 / qcomp=0.60 / qpmin=10 / qpmax=51 / qpstep=4 / cplxblur=20.0 / qblur=0.5 / ip_ratio=1.40 / pb_ratio=1.30 / aq=1:1.00
  25. Default                                  : Yes
  26. Forced                                   : No

  27. Audio
  28. ID                                       : 2
  29. Format                                   : DTS
  30. Format/Info                              : Digital Theater Systems
  31. Codec ID                                 : A_DTS
  32. Duration                                 : 2 h 21 min
  33. Bit rate mode                            : Constant
  34. Bit rate                                 : 1 509 kb/s
  35. Channel(s)                               : 6 channels
  36. Channel positions                        : Front: L C R, Side: L R, LFE
  37. Sampling rate                            : 48.0 kHz
  38. Frame rate                               : 93.750 FPS (512 SPF)
  39. Bit depth                                : 24 bits
  40. Compression mode                         : Lossy
  41. Stream size                              : 1.50 GiB (14%)
  42. Default                                  : Yes
  43. Forced                                   : No

  44. Menu
  45. 00:00:00.000                             : en:01
  46. 00:12:30.116                             : en:02
  47. 00:29:50.989                             : en:03
  48. 00:44:01.973                             : en:04
  49. 00:58:57.334                             : en:05
  50. 01:11:29.852                             : en:06
  51. 01:22:15.330                             : en:07
  52. 01:30:02.631                             : en:08
  53. 01:37:06.954                             : en:09
  54. 01:46:41.328                             : en:10
  55. 01:59:14.114                             : en:11
  56. 02:11:33.352                             : en:12
复制代码

复制代码

杀戮疆场/烽火屠城 The.Killing.Fields.1984.1080p.BluRay.x264-TiMELORDS 10.94GB-2.png 杀戮疆场/烽火屠城 The.Killing.Fields.1984.1080p.BluRay.x264-TiMELORDS 10.94GB-3.png 杀戮疆场/烽火屠城 The.Killing.Fields.1984.1080p.BluRay.x264-TiMELORDS 10.94GB-4.png





回复

使用道具 举报

懒得打字嘛,点击右侧快捷回复 【右侧内容,后台自定义】
您需要登录后才可以回帖 登录 | 立即加入

本版积分规则

Archiver|小黑屋| 蓝光电影网 |网站地图

Copyright © 2021 Comsenz Inc. Powered by 蓝光电影网

蓝光电影网

本站内容由用户自主分享和转载自互联网,转载目的在于传递更多信息,并不代表本网赞同其观点和对其真实性负责。

如有侵权、违反国家法律政策行为,请联系我们,我们会第一时间及时清除和处理!

举报反馈邮箱:[email protected]

快速回复 返回顶部 返回列表