找回密码

蓝光电影网

查看: 783|回复: 4

[剧情] 奥斯汀书会/简·奥斯丁书友会 The.Jane.Austen.Book.Club.2007.1080p.BluRay.x264-TiMELORDS 7.95GB

[复制链接]
蓝光币
623
发表于 2018-9-4 09:42:43 | 显示全部楼层 |阅读模式

奥斯汀书会/简·奥斯丁书友会 The.Jane.Austen.Book.Club.2007.1080p.BluRay.x264-TiMELORDS 7.95GB-1.jpg
◎译  名 奥斯汀书会/简·奥斯丁书友会/我们都是奥斯汀迷
◎片  名 The Jane Austen Book Club
◎年  代 2007
◎产  地 美国
◎类  别 剧情/恋爱
◎语  言 英语
◎上映日期 2007-10-05(美国)
◎豆瓣评分 7.5/10 from 10,865 users
◎豆瓣链接 https://movie.douban.com/subject/2083967/
◎片  长 106 分钟
◎导  演 罗宾·史威考德 Robin Swicord
◎主  演 艾米莉·布朗特 Emily Blunt
      休·丹西 Hugh Dancy
      玛丽亚·贝罗 Maria Bello
      凯西·贝克 Kathy Baker
      艾米·布伦尼曼 Amy Brenneman
      玛姬·格蕾斯 Maggie Grace

◎简  介

  伯纳黛特是位温柔的密斯,她对恋爱总是布满希望,她也关心书会中每小我的生活与心情。她建立的奥斯汀书友会,喜好把会员聚集在一路会商奥斯汀书中的内容,每次集会城阛阓中会商一本书。
  会员乔斯琳(玛丽亚?贝罗 饰)多年来一向单身,她享用与爱犬生活在一路。她的好友西尔维娅(艾米?布伦尼曼 饰)也是会员之一,可是她25年的婚姻遭到应战,她与丈夫丹尼尔仳离了。一次,乔斯琳在电梯里偶遇了后来也加入了书会的格瑞格(休?丹西 饰),乔斯琳死力想撮及格瑞格与西尔维娅。可是乔斯琳看到两人走得越来越近的时辰,心里却有点说不出的滋味。而究竟上,西尔维娅是一向爱着前夫的,丹尼尔更有与西尔维娅复合的想法。而格瑞格也故意仪的女孩,那即是乔斯琳。
  西尔维娅的女儿阿莱格拉(玛姬?格雷斯 饰)是位同性恋者,她在母亲婚变后陪伴左右继而也加入书会。阿莱格拉心爱灵巧,但直到她两次受伤住院,母亲才发现自己的女儿本来喜好极限活动。可是阿莱格拉的情路并不服坦,她的新任女友居然把她的奥秘写成了小说,阿莱格拉悲伤不已。
  普鲁迪(艾米莉?布朗特 饰)也是会员之一,是一位法语教师。可是她的丈夫并不关心,就在她感应无助懦弱的时辰她爱上了自己的门生特雷。普鲁迪的谈吐并不会完全获得书会中会员的认同,大师都以为她性情怪异。她与新朋友们的相处渐入佳境,而她也要为自己的恋爱做出决定。
  他们还是相处甚欢的,他们每次会商一本书,都恍如把各自的生活概念结合书上内容一路会商,他们的生活都离不开简?奥斯汀的著作,接下来他们的生活又将遭到6本小说带来的影响?

  1. Video
  2. ID                                       : 1
  3. Format                                   : AVC
  4. Format/Info                              : Advanced Video Codec
  5. Format profile                           : [url=/cdn-cgi/l/email-protection][email protected][/url]
  6. Format settings                          : CABAC / 4 Ref Frames
  7. Format settings, CABAC                   : Yes
  8. Format settings, ReFrames                : 4 frames
  9. Codec ID                                 : V_MPEG4/ISO/AVC
  10. Duration                                 : 1 h 45 min
  11. Bit rate                                 : 10.1 Mb/s
  12. Width                                    : 1 920 pixels
  13. Height                                   : 1 080 pixels
  14. Display aspect ratio                     : 16:9
  15. Frame rate mode                          : Constant
  16. Frame rate                               : 23.976 (24000/1001) FPS
  17. Color space                              : YUV
  18. Chroma subsampling                       : 4:2:0
  19. Bit depth                                : 8 bits
  20. Scan type                                : Progressive
  21. Bits/(Pixel*Frame)                       : 0.204
  22. Stream size                              : 7.32 GiB (92%)
  23. Title                                    : The Jane Austen Book Club
  24. Writing library                          : x264 core 61 r957 7ce0f2c
  25. Encoding settings                        : cabac=1 / ref=4 / deblock=1:0:0 / analyse=0x3:0x133 / me=umh / subme=7 / brdo=1 / mixed_ref=1 / me_range=16 / chroma_me=1 / trellis=1 / 8x8dct=1 / cqm=0 / deadzone=21,11 / chroma_qp_offset=0 / threads=6 / nr=0 / decimate=1 / mbaff=0 / bframes=3 / b_pyramid=1 / b_adapt=1 / b_bias=0 / direct=1 / wpredb=1 / bime=1 / keyint=250 / keyint_min=25 / scenecut=40(pre) / rc=2pass / bitrate=10130 / ratetol=1.0 / qcomp=1.00 / qpmin=10 / qpmax=51 / qpstep=4 / cplxblur=20.0 / qblur=0.5 / ip_ratio=1.40 / pb_ratio=1.30 / aq=2:1.00
  26. Default                                  : Yes
  27. Forced                                   : No

  28. Audio
  29. ID                                       : 2
  30. Format                                   : AC-3
  31. Format/Info                              : Audio Coding 3
  32. Codec ID                                 : A_AC3
  33. Duration                                 : 1 h 45 min
  34. Bit rate mode                            : Constant
  35. Bit rate                                 : 640 kb/s
  36. Channel(s)                               : 6 channels
  37. Channel positions                        : Front: L C R, Side: L R, LFE
  38. Sampling rate                            : 48.0 kHz
  39. Frame rate                               : 31.250 FPS (1536 SPF)
  40. Bit depth                                : 16 bits
  41. Compression mode                         : Lossy
  42. Stream size                              : 483 MiB (6%)
  43. Title                                    : AC3
  44. Language                                 : English
  45. Service kind                             : Complete Main
  46. Default                                  : Yes
  47. Forced                                   : No

  48. Text #1
  49. ID                                       : 3
  50. Format                                   : UTF-8
  51. Codec ID                                 : S_TEXT/UTF8
  52. Codec ID/Info                            : UTF-8 Plain Text
  53. Title                                    : -
  54. Language                                 : Danish
  55. Default                                  : No
  56. Forced                                   : No

  57. Text #2
  58. ID                                       : 4
  59. Format                                   : UTF-8
  60. Codec ID                                 : S_TEXT/UTF8
  61. Codec ID/Info                            : UTF-8 Plain Text
  62. Title                                    : -
  63. Language                                 : English
  64. Default                                  : No
  65. Forced                                   : No

  66. Text #3
  67. ID                                       : 5
  68. Format                                   : UTF-8
  69. Codec ID                                 : S_TEXT/UTF8
  70. Codec ID/Info                            : UTF-8 Plain Text
  71. Title                                    : -
  72. Language                                 : Finnish
  73. Default                                  : No
  74. Forced                                   : No

  75. Text #4
  76. ID                                       : 6
  77. Format                                   : UTF-8
  78. Codec ID                                 : S_TEXT/UTF8
  79. Codec ID/Info                            : UTF-8 Plain Text
  80. Title                                    : -
  81. Language                                 : Norwegian
  82. Default                                  : No
  83. Forced                                   : No

  84. Text #5
  85. ID                                       : 7
  86. Format                                   : UTF-8
  87. Codec ID                                 : S_TEXT/UTF8
  88. Codec ID/Info                            : UTF-8 Plain Text
  89. Title                                    : -
  90. Language                                 : Swedish
  91. Default                                  : No
  92. Forced                                   : No
复制代码

复制代码

奥斯汀书会/简·奥斯丁书友会 The.Jane.Austen.Book.Club.2007.1080p.BluRay.x264-TiMELORDS 7.95GB-2.png 奥斯汀书会/简·奥斯丁书友会 The.Jane.Austen.Book.Club.2007.1080p.BluRay.x264-TiMELORDS 7.95GB-3.png 奥斯汀书会/简·奥斯丁书友会 The.Jane.Austen.Book.Club.2007.1080p.BluRay.x264-TiMELORDS 7.95GB-4.png






回复

使用道具 举报

蓝光币
664
发表于 2020-4-15 00:26:17 | 显示全部楼层
非常感谢楼主分享
回复 支持 反对

使用道具 举报

懒得打字嘛,点击右侧快捷回复 【右侧内容,后台自定义】
您需要登录后才可以回帖 登录 | 立即加入

本版积分规则

Archiver|小黑屋| 蓝光电影网 |网站地图

Copyright © 2021 Comsenz Inc. Powered by 蓝光电影网

蓝光电影网

本站内容由用户自主分享和转载自互联网,转载目的在于传递更多信息,并不代表本网赞同其观点和对其真实性负责。

如有侵权、违反国家法律政策行为,请联系我们,我们会第一时间及时清除和处理!

举报反馈邮箱:kf4k1080[email protected]

快速回复 返回顶部 返回列表