找回密码

蓝光电影网

查看: 5843|回复: 2

[动作] 亡命大煞星/赌命鸳鸯 The.Getaway.1972.1080p.BluRay.x264-TiMELORDS 7.95GB

[复制链接]
蓝光币
623
发表于 2018-9-4 09:43:04 | 显示全部楼层 |阅读模式

亡命大煞星/赌命鸳鸯 The.Getaway.1972.1080p.BluRay.x264-TiMELORDS 7.95GB-1.jpg
◎译  名 亡命大煞星/赌命鸳鸯
◎片  名 The Getaway
◎年  代 1972
◎产  地 美国
◎类  别 行动/冒险/犯罪/惊悚
◎语  言 英语
◎上映日期 1972-12-13
◎豆瓣评分 8.1/10 from 868 users
◎豆瓣链接 https://movie.douban.com/subject/1298905/
◎片  长 122 分钟
◎导  演 萨姆·佩金帕 Sam Peckinpah
◎主  演 史蒂夫·麦奎因 Steve McQueen
      艾丽·麦古奥 Ali MacGraw
      本·约翰逊 Ben Johnson

◎简  介

  一场意外让达克(史蒂夫·麦奎因 Steve McQueen 饰)行将面临冗长而又疾苦的牢狱之灾,为了让丈夫免于受难,达克的妻子卡罗尔(艾丽·麦古奥 Ali MacGraw 饰)不惜牺牲色相,行贿牢狱的上层官员。果不其然,达克获得了出格假释,与此同时,警长拜伦(本·约翰逊 Ben Johnson 饰)告诉达克,作为交换,他必须帮他一个“小忙”——抢劫一间银行!
  迫于拜伦的淫威,达克只能就范,但是,他并不晓得的事,拜伦的心里里早已经判了自己死刑,他底子就没有想让达克大概分开犯罪现场。和达克一路行动的是一位名叫鲁迪(艾尔·勒提埃里 Al Lettieri 饰)的男人,他的想法同拜伦不约而合。在这样四周楚歌的危险状态之下,达克能否顺遂完成使命呢?

  1. Video
  2. ID                                       : 1
  3. Format                                   : AVC
  4. Format/Info                              : Advanced Video Codec
  5. Format profile                           : [url=/cdn-cgi/l/email-protection][email protected][/url]
  6. Format settings                          : CABAC / 4 Ref Frames
  7. Format settings, CABAC                   : Yes
  8. Format settings, ReFrames                : 4 frames
  9. Codec ID                                 : V_MPEG4/ISO/AVC
  10. Duration                                 : 2 h 2 min
  11. Bit rate                                 : 9 068 kb/s
  12. Width                                    : 1 920 pixels
  13. Height                                   : 800 pixels
  14. Display aspect ratio                     : 2.40:1
  15. Frame rate mode                          : Constant
  16. Frame rate                               : 23.976 FPS
  17. Color space                              : YUV
  18. Chroma subsampling                       : 4:2:0
  19. Bit depth                                : 8 bits
  20. Scan type                                : Progressive
  21. Bits/(Pixel*Frame)                       : 0.246
  22. Stream size                              : 7.62 GiB (96%)
  23. Writing library                          : x264 core 60 r895M 16b8f79
  24. Encoding settings                        : cabac=1 / ref=4 / deblock=1:-3:-3 / analyse=0x1:0x111 / me=umh / subme=6 / rdcmp=psy / brdo=1 / mixed_ref=1 / me_range=16 / chroma_me=1 / trellis=1 / 8x8dct=0 / cqm=0 / deadzone=10,6 / chroma_qp_offset=0 / threads=6 / nr=0 / decimate=1 / mbaff=0 / bframes=3 / b_pyramid=1 / b_adapt=1 / b_bias=0 / direct=1 / wpredb=1 / bime=1 / keyint=250 / keyint_min=25 / scenecut=40(pre) / rc=2pass / bitrate=9068 / ratetol=1.0 / rceq=\'blurCplx^(1-qComp)\' / qcomp=1.00 / qpmin=10 / qpmax=51 / qpstep=4 / cplxblur=20.0 / qblur=0.5 / ip_ratio=1.40 / pb_ratio=1.30 / aq=2:1.50
  25. Default                                  : Yes
  26. Forced                                   : No

  27. Audio
  28. ID                                       : 2
  29. Format                                   : AC-3
  30. Format/Info                              : Audio Coding 3
  31. Codec ID                                 : A_AC3
  32. Duration                                 : 2 h 2 min
  33. Bit rate mode                            : Constant
  34. Bit rate                                 : 192 kb/s
  35. Channel(s)                               : 1 channel
  36. Channel positions                        : Front: C
  37. Sampling rate                            : 48.0 kHz
  38. Frame rate                               : 31.250 FPS (1536 SPF)
  39. Bit depth                                : 16 bits
  40. Compression mode                         : Lossy
  41. Stream size                              : 169 MiB (2%)
  42. Service kind                             : Complete Main
  43. Default                                  : Yes
  44. Forced                                   : No

  45. Text
  46. ID                                       : 3
  47. Format                                   : UTF-8
  48. Codec ID                                 : S_TEXT/UTF8
  49. Codec ID/Info                            : UTF-8 Plain Text
  50. Language                                 : English
  51. Default                                  : Yes
  52. Forced                                   : No
复制代码

复制代码

亡命大煞星/赌命鸳鸯 The.Getaway.1972.1080p.BluRay.x264-TiMELORDS 7.95GB-2.png 亡命大煞星/赌命鸳鸯 The.Getaway.1972.1080p.BluRay.x264-TiMELORDS 7.95GB-3.png 亡命大煞星/赌命鸳鸯 The.Getaway.1972.1080p.BluRay.x264-TiMELORDS 7.95GB-4.png







回复

使用道具 举报

蓝光币
325
发表于 2018-9-4 13:42:33 | 显示全部楼层
感谢分享好片。
回复 支持 反对

使用道具 举报

蓝光币
130
发表于 2018-9-6 16:05:33 | 显示全部楼层
电影涉及社会问题,制度不同
回复 支持 反对

使用道具 举报

懒得打字嘛,点击右侧快捷回复 【右侧内容,后台自定义】
您需要登录后才可以回帖 登录 | 立即加入

本版积分规则

Archiver|小黑屋| 蓝光电影网 |网站地图

Copyright © 2021 Comsenz Inc. Powered by 蓝光电影网

蓝光电影网

本站内容由用户自主分享和转载自互联网,转载目的在于传递更多信息,并不代表本网赞同其观点和对其真实性负责。

如有侵权、违反国家法律政策行为,请联系我们,我们会第一时间及时清除和处理!

举报反馈邮箱:[email protected]

快速回复 返回顶部 返回列表