找回密码

蓝光电影网

查看: 1952|回复: 1

[喜剧] 光猪六壮士/一脱到底 The.Full.Monty.1997.1080p.BluRay.x264-TiMELORDS 7.93GB

[复制链接]
蓝光币
623
发表于 2018-9-4 09:43:54 | 显示全部楼层 |阅读模式

光猪六勇士/一脱到底 The.Full.Monty.1997.1080p.BluRay.x264-TiMELORDS 7.93GB-1.jpg
◎译  名 光猪六勇士/一脱到底/一路到底:脱线舞男
◎片  名 The Full Monty
◎年  代 1997
◎产  地 英国
◎类  别 笑剧/音乐
◎语  言 英语
◎上映日期 1997-08-13
◎豆瓣评分 7.8/10 from 18,359 users
◎豆瓣链接 https://movie.douban.com/subject/1292541/
◎片  长 91 分钟
◎导  演 彼得·卡坦纽 Peter Cattaneo
◎主  演 罗伯特·卡莱尔 Robert Carlyle
      马克·阿蒂 Mark Addy
      汤姆·威尔金森 Tom Wilkinson
      威廉· 史乃普 William Snape
      史提夫?惠森 Steve Huison

◎简  介

  下岗生怕不但仅是中国工人面临的题目,下岗了怎样办?英国人用他们的诙谐给我们上了一课。此日,刚下岗的钢铁工人盖茨(罗伯特?卡莱尔 Robert Carlyle 饰)和戴夫(马克?艾迪 Mark Addy 饰)遇上了一个惺惺相惜的兄弟――正在自杀的龙珀(史提夫?惠森 Ste ve Huison 饰),二人慌忙救下了他。为了此后的前途,三人挖空心机。终极,他们想出了一个近乎疯狂的主张。
  他们找到了已经转业在舞厅当演员的前领班杰拉尔,因而,当地第一个专门的汉子脱衣舞团建立了!随后,黑人霍斯和小伙子盖伊也闻风加入了这个团体。在连续串爆笑的排场下,这个脱衣舞团第一次表演就获得了空前的成功,虽然由于涉嫌色情遭到了差人观察,却为这个团体增加了加倍多人气,很多人出于猎奇心而来旁观表演。在获得了家庭成员的了解后,这个团体起头了他们的终极表演。

◎获奖情况

  第70届奥斯卡金像奖  (1998)
  最好影片(提名) 乌贝托·帕索里尼
  最好导演(提名) 彼得·卡坦纽
  最好原创剧本(提名) 西蒙·博福伊
  音乐/笑剧片最好原创配乐 安妮·达德莉

  1. Video
  2. ID                                       : 1
  3. Format                                   : AVC
  4. Format/Info                              : Advanced Video Codec
  5. Format profile                           : [url=/cdn-cgi/l/email-protection][email protected][/url]
  6. Format settings                          : CABAC / 4 Ref Frames
  7. Format settings, CABAC                   : Yes
  8. Format settings, ReFrames                : 4 frames
  9. Codec ID                                 : V_MPEG4/ISO/AVC
  10. Duration                                 : 1 h 31 min
  11. Bit rate                                 : 10.9 Mb/s
  12. Width                                    : 1 920 pixels
  13. Height                                   : 1 040 pixels
  14. Display aspect ratio                     : 1.85:1
  15. Frame rate mode                          : Constant
  16. Frame rate                               : 23.976 FPS
  17. Color space                              : YUV
  18. Chroma subsampling                       : 4:2:0
  19. Bit depth                                : 8 bits
  20. Scan type                                : Progressive
  21. Bits/(Pixel*Frame)                       : 0.228
  22. Stream size                              : 6.81 GiB (86%)
  23. Writing library                          : x264 core 67 r1127M 8d82fec
  24. Encoding settings                        : cabac=1 / ref=4 / deblock=1:0:0 / analyse=0x3:0x133 / me=umh / subme=7 / psy_rd=1.0:0.0 / mixed_ref=1 / me_range=16 / chroma_me=1 / trellis=1 / 8x8dct=1 / cqm=0 / deadzone=21,11 / chroma_qp_offset=-2 / threads=6 / nr=0 / decimate=0 / mbaff=0 / bframes=3 / b_pyramid=1 / b_adapt=1 / b_bias=0 / direct=1 / wpredb=1 / keyint=250 / keyint_min=25 / scenecut=40 / rc=2pass / bitrate=10897 / ratetol=1.0 / qcomp=0.60 / qpmin=10 / qpmax=51 / qpstep=4 / cplxblur=20.0 / qblur=0.5 / ip_ratio=1.40 / pb_ratio=1.30 / aq=1:1.00
  25. Default                                  : Yes
  26. Forced                                   : No

  27. Audio
  28. ID                                       : 2
  29. Format                                   : DTS
  30. Format/Info                              : Digital Theater Systems
  31. Codec ID                                 : A_DTS
  32. Duration                                 : 1 h 31 min
  33. Bit rate mode                            : Constant
  34. Bit rate                                 : 1 509 kb/s
  35. Channel(s)                               : 6 channels
  36. Channel positions                        : Front: L C R, Side: L R, LFE
  37. Sampling rate                            : 48.0 kHz
  38. Frame rate                               : 93.750 FPS (512 SPF)
  39. Bit depth                                : 24 bits
  40. Compression mode                         : Lossy
  41. Stream size                              : 988 MiB (12%)
  42. Language                                 : English
  43. Default                                  : Yes
  44. Forced                                   : No

  45. Text #1
  46. ID                                       : 3
  47. Format                                   : UTF-8
  48. Codec ID                                 : S_TEXT/UTF8
  49. Codec ID/Info                            : UTF-8 Plain Text
  50. Language                                 : Danish
  51. Default                                  : Yes
  52. Forced                                   : No

  53. Text #2
  54. ID                                       : 4
  55. Format                                   : UTF-8
  56. Codec ID                                 : S_TEXT/UTF8
  57. Codec ID/Info                            : UTF-8 Plain Text
  58. Language                                 : Finnish
  59. Default                                  : No
  60. Forced                                   : No

  61. Text #3
  62. ID                                       : 5
  63. Format                                   : UTF-8
  64. Codec ID                                 : S_TEXT/UTF8
  65. Codec ID/Info                            : UTF-8 Plain Text
  66. Language                                 : Dutch
  67. Default                                  : No
  68. Forced                                   : No

  69. Text #4
  70. ID                                       : 6
  71. Format                                   : UTF-8
  72. Codec ID                                 : S_TEXT/UTF8
  73. Codec ID/Info                            : UTF-8 Plain Text
  74. Language                                 : Norwegian
  75. Default                                  : No
  76. Forced                                   : No

  77. Text #5
  78. ID                                       : 7
  79. Format                                   : UTF-8
  80. Codec ID                                 : S_TEXT/UTF8
  81. Codec ID/Info                            : UTF-8 Plain Text
  82. Language                                 : Swedish
  83. Default                                  : No
  84. Forced                                   : No

  85. Text #6
  86. ID                                       : 8
  87. Format                                   : UTF-8
  88. Codec ID                                 : S_TEXT/UTF8
  89. Codec ID/Info                            : UTF-8 Plain Text
  90. Language                                 : English
  91. Default                                  : No
  92. Forced                                   : No

  93. Menu
  94. 00:00:00.000                             : en:01
  95. 00:02:23.143                             : en:02
  96. 00:04:45.660                             : en:03
  97. 00:06:05.991                             : en:04
  98. 00:06:55.165                             : en:05
  99. 00:08:24.170                             : en:06
  100. 00:08:41.896                             : en:07
  101. 00:09:59.182                             : en:08
  102. 00:12:24.369                             : en:09
  103. 00:14:05.303                             : en:10
  104. 00:17:59.704                             : en:11
  105. 00:19:50.898                             : en:12
  106. 00:22:34.478                             : en:13
  107. 00:28:13.400                             : en:14
  108. 00:30:44.217                             : en:15
  109. 00:33:17.746                             : en:16
  110. 00:35:37.427                             : en:17
  111. 00:37:18.528                             : en:18
  112. 00:39:02.757                             : en:19
  113. 00:42:23.624                             : en:20
  114. 00:45:47.703                             : en:21
  115. 00:46:56.564                             : en:22
  116. 00:49:01.564                             : en:23
  117. 00:52:17.051                             : en:24
  118. 00:53:48.308                             : en:25
  119. 00:55:36.625                             : en:26
  120. 00:57:27.486                             : en:27
  121. 01:00:29.209                             : en:28
  122. 01:02:42.717                             : en:29
  123. 01:04:26.071                             : en:30
  124. 01:08:03.830                             : en:31
  125. 01:14:43.979                             : en:32
  126. 01:18:29.079                             : en:33
  127. 01:21:06.153                             : en:34
  128. 01:24:01.411                             : en:35
  129. 01:27:18.733                             : en:36
  130. 01:31:30.694                             : en:37
复制代码

复制代码

光猪六勇士/一脱到底 The.Full.Monty.1997.1080p.BluRay.x264-TiMELORDS 7.93GB-2.png 光猪六勇士/一脱到底 The.Full.Monty.1997.1080p.BluRay.x264-TiMELORDS 7.93GB-3.png 光猪六勇士/一脱到底 The.Full.Monty.1997.1080p.BluRay.x264-TiMELORDS 7.93GB-4.png






回复

使用道具 举报

蓝光币
1243
发表于 2018-9-9 12:21:37 | 显示全部楼层
很老的 电影 了   !!!!!!!!!!!!!!!!!!!!!!!!
回复 支持 反对

使用道具 举报

懒得打字嘛,点击右侧快捷回复 【右侧内容,后台自定义】
您需要登录后才可以回帖 登录 | 立即加入

本版积分规则

Archiver|小黑屋| 蓝光电影网 |网站地图

Copyright © 2021 Comsenz Inc. Powered by 蓝光电影网

蓝光电影网

本站内容由用户自主分享和转载自互联网,转载目的在于传递更多信息,并不代表本网赞同其观点和对其真实性负责。

如有侵权、违反国家法律政策行为,请联系我们,我们会第一时间及时清除和处理!

举报反馈邮箱:[email protected]

快速回复 返回顶部 返回列表