找回密码

蓝光电影网

查看: 2974|回复: 4

[动作] 第六日/魔鬼复制人 The.6th.Day.2000.1080p.BluRay.x264-TiMELORDS 7.95GB

[复制链接]
蓝光币
623
发表于 2018-9-4 09:44:15 | 显示全部楼层 |阅读模式


◎译  名 第六日/魔鬼复制人/第六发现/生死第六日/第六天
◎片  名 The 6th Day
◎年  代 2000
◎产  地 美国
◎类  别 行动/科幻/惊悚
◎语  言 英语
◎上映日期 2000-11-17
◎豆瓣评分 6.8/10 from 26,602 users
◎豆瓣链接 https://movie.douban.com/subject/1294893/
◎片  长 123 分钟
◎导  演 罗杰·斯波蒂斯伍德 Roger Spottiswoode
◎主  演 阿诺·施瓦辛格 Arnold Schwarzenegger
      迈克尔·拉帕波特 Michael Rapaport
      托尼·戈德温 Tony Goldwyn
      迈克尔·鲁克 Michael Rooker
      莎拉·温特 Sarah Wynter
      罗伯特·杜瓦尔 Robert Duvall

◎简  介

  克隆技术在不远的未来有了长足的进步,但复制人还是法理上不成超越的禁区,政府经过《第六天法》严酷制止克隆人。
  飞翔员亚当(Arnold Schwarzenegger 饰)具有幸运的家庭,他出于本能的厌恶那些违反自然纪律的基因技术。亚当平常的工作是和同伴送旅客上雪峰,此日他们为宠物克隆公司的老板恰克(Tony Goldwyn 饰)办事,同伴顶替亚当驾驶却发生了意外……回抵家中的亚当发现居然有一个克隆人顶替了自己的位置加入他的生日宴,莫名惊骇之下他又被来路不明的杀手追杀,他很快大白自己成为了宠物克隆公司的人类复制实验品,做为母体,他面临被消灭的危险。
  在流亡的进程中亚当与暴力否决克隆人计划的构造合作,成功潜入宠物克隆公司,并控制了克隆人技术的负责人威尔博士……

  1. Video
  2. ID                                       : 1
  3. Format                                   : AVC
  4. Format/Info                              : Advanced Video Codec
  5. Format profile                           : [url=/cdn-cgi/l/email-protection][email protected][/url]
  6. Format settings                          : CABAC / 5 Ref Frames
  7. Format settings, CABAC                   : Yes
  8. Format settings, ReFrames                : 5 frames
  9. Codec ID                                 : V_MPEG4/ISO/AVC
  10. Duration                                 : 2 h 3 min
  11. Bit rate                                 : 8 565 kb/s
  12. Width                                    : 1 920 pixels
  13. Height                                   : 800 pixels
  14. Display aspect ratio                     : 2.40:1
  15. Frame rate mode                          : Constant
  16. Frame rate                               : 23.976 (24000/1001) FPS
  17. Color space                              : YUV
  18. Chroma subsampling                       : 4:2:0
  19. Bit depth                                : 8 bits
  20. Scan type                                : Progressive
  21. Bits/(Pixel*Frame)                       : 0.233
  22. Stream size                              : 7.24 GiB (91%)
  23. Title                                    : The 6th Day 1080p x264
  24. Writing library                          : x264 core 59 r859 ce13bb6
  25. Encoding settings                        : cabac=1 / ref=5 / deblock=1:-2:-1 / analyse=0x3:0x133 / me=umh / subme=7 / brdo=1 / mixed_ref=1 / me_range=16 / chroma_me=1 / trellis=1 / 8x8dct=1 / cqm=0 / deadzone=8,16 / chroma_qp_offset=0 / threads=3 / nr=0 / decimate=1 / mbaff=0 / bframes=3 / b_pyramid=1 / b_adapt=1 / b_bias=0 / direct=1 / wpredb=1 / bime=1 / keyint=250 / keyint_min=25 / scenecut=40(pre) / rc=2pass / bitrate=8565 / ratetol=1.0 / rceq=\'blurCplx^(1-qComp)\' / qcomp=1.00 / qpmin=10 / qpmax=51 / qpstep=4 / cplxblur=20.0 / qblur=0.5 / ip_ratio=1.40 / pb_ratio=1.30 / aq=2:1.10
  26. Default                                  : Yes
  27. Forced                                   : No

  28. Audio
  29. ID                                       : 2
  30. Format                                   : AC-3
  31. Format/Info                              : Audio Coding 3
  32. Codec ID                                 : A_AC3
  33. Duration                                 : 2 h 3 min
  34. Bit rate mode                            : Constant
  35. Bit rate                                 : 640 kb/s
  36. Channel(s)                               : 6 channels
  37. Channel positions                        : Front: L C R, Side: L R, LFE
  38. Sampling rate                            : 48.0 kHz
  39. Frame rate                               : 31.250 FPS (1536 SPF)
  40. Bit depth                                : 16 bits
  41. Compression mode                         : Lossy
  42. Stream size                              : 566 MiB (7%)
  43. Title                                    : AC3 640kbit
  44. Language                                 : English
  45. Service kind                             : Complete Main
  46. Default                                  : Yes
  47. Forced                                   : No

  48. Text
  49. ID                                       : 3
  50. Format                                   : UTF-8
  51. Codec ID                                 : S_TEXT/UTF8
  52. Codec ID/Info                            : UTF-8 Plain Text
  53. Title                                    : -
  54. Language                                 : English
  55. Default                                  : Yes
  56. Forced                                   : No
复制代码

复制代码








回复

使用道具 举报

蓝光币
262
发表于 2018-9-8 13:11:23 | 显示全部楼层
感谢楼主分享~~~
回复 支持 反对

使用道具 举报

蓝光币
1243
发表于 2018-9-9 12:17:34 | 显示全部楼层
经典 老电影   !!!!!!!!!!!!!!!!!!!!!!
回复 支持 反对

使用道具 举报

蓝光币
27
发表于 2018-9-10 20:15:24 | 显示全部楼层
感谢分享!!:)
回复

使用道具 举报

蓝光币
12
发表于 2020-12-16 01:47:28 | 显示全部楼层

楼主,大恩不言谢了!蓝光电影网是最棒的!
回复 支持 反对

使用道具 举报

懒得打字嘛,点击右侧快捷回复 【右侧内容,后台自定义】
您需要登录后才可以回帖 登录 | 立即加入

本版积分规则

Archiver|小黑屋| 蓝光电影网 |网站地图

Copyright © 2021 Comsenz Inc. Powered by 蓝光电影网

蓝光电影网

本站内容由用户自主分享和转载自互联网,转载目的在于传递更多信息,并不代表本网赞同其观点和对其真实性负责。

如有侵权、违反国家法律政策行为,请联系我们,我们会第一时间及时清除和处理!

举报反馈邮箱:[email protected]

快速回复 返回顶部 返回列表