找回密码

蓝光电影网

查看: 1879|回复: 1

[喜剧] 疯羊/羊人 Black.Sheep.2006.1080p.BluRay.x264-TiMELORDS 6.56GB

[复制链接]
蓝光币
623
发表于 2018-9-4 09:46:55 | 显示全部楼层 |阅读模式

疯羊/羊人 Black.Sheep.2006.1080p.BluRay.x264-TiMELORDS 6.56GB-1.jpg
◎译  名 疯羊/羊人/养羊吃人/丧尸羔羊/黯阴羊/黑羊
◎片  名 Black Sheep
◎年  代 2006
◎产  地 新西兰
◎类  别 笑剧/可骇
◎语  言 英语
◎上映日期 2007-03-29
◎豆瓣评分 5.7/10 from 4,835 users
◎豆瓣链接 https://movie.douban.com/subject/1876686/
◎片  长 USA: 87 分钟/Argentina: 87 分钟/Canada: 87 分钟(Toronto International Film Festival)
◎导  演 Jonathan King
◎主  演 Matthew Chamberlain
      Tammy Davis
      Peter Feeney

◎简  介

  美丽安好的新西兰牧场,无数温顺的绵羊正在草场上寻食,忽然远处传来使人毛骨悚然的啼声。奥利弗(马修·张伯伦 Matthew Chamberlain 饰)年幼时由于哥哥安格斯的恶作剧而得了“恐羊症”,成人后在回农场处置父亲留下的遗产时发现哥哥安格斯为了赢利而用羊做基因实验,从而激发了一场灾难。原本温顺的绵羊忽然变得凶残起来,而且敏捷舒展。凡是被已经变异的羊咬过,不管是羊大概是人城市酿成可怕的食肉动物。四周潜藏的奥利弗巧遇一向否决农场基因实验的女孩“Experience”,在农场工人塔克的帮助下,三人不能不起头阻制这场灾难的进一步分散……
  本片是新西兰导演乔纳森·金 (Jonathan King)的童贞作,这位口胃怪异的导演热衷于“使人倒胃口的血腥镜头”。

  1. Video
  2. ID                                       : 1
  3. Format                                   : AVC
  4. Format/Info                              : Advanced Video Codec
  5. Format profile                           : [url=/cdn-cgi/l/email-protection][email protected][/url]
  6. Format settings                          : CABAC / 5 Ref Frames
  7. Format settings, CABAC                   : Yes
  8. Format settings, ReFrames                : 5 frames
  9. Codec ID                                 : V_MPEG4/ISO/AVC
  10. Duration                                 : 1 h 26 min
  11. Bit rate                                 : 10.2 Mb/s
  12. Width                                    : 1 920 pixels
  13. Height                                   : 816 pixels
  14. Display aspect ratio                     : 2.35:1
  15. Frame rate mode                          : Constant
  16. Frame rate                               : 24.000 FPS
  17. Color space                              : YUV
  18. Chroma subsampling                       : 4:2:0
  19. Bit depth                                : 8 bits
  20. Scan type                                : Progressive
  21. Bits/(Pixel*Frame)                       : 0.272
  22. Stream size                              : 6.04 GiB (92%)
  23. Writing library                          : x264 core 66 r1109M 75b495f
  24. Encoding settings                        : cabac=1 / ref=5 / deblock=1:0:0 / analyse=0x3:0x133 / me=umh / subme=7 / psy_rd=1.0:0.0 / mixed_ref=1 / me_range=16 / chroma_me=1 / trellis=1 / 8x8dct=1 / cqm=0 / deadzone=21,11 / chroma_qp_offset=-2 / threads=6 / nr=0 / decimate=0 / mbaff=0 / bframes=3 / b_pyramid=1 / b_adapt=1 / b_bias=0 / direct=1 / wpredb=1 / keyint=250 / keyint_min=25 / scenecut=40(pre) / rc=2pass / bitrate=10226 / ratetol=1.0 / qcomp=0.60 / qpmin=10 / qpmax=51 / qpstep=4 / cplxblur=20.0 / qblur=0.5 / ip_ratio=1.40 / pb_ratio=1.30 / aq=1:1.00
  25. Default                                  : Yes
  26. Forced                                   : No

  27. Audio
  28. ID                                       : 2
  29. Format                                   : AC-3
  30. Format/Info                              : Audio Coding 3
  31. Codec ID                                 : A_AC3
  32. Duration                                 : 1 h 26 min
  33. Bit rate mode                            : Constant
  34. Bit rate                                 : 640 kb/s
  35. Channel(s)                               : 6 channels
  36. Channel positions                        : Front: L C R, Side: L R, LFE
  37. Sampling rate                            : 48.0 kHz
  38. Frame rate                               : 31.250 FPS (1536 SPF)
  39. Bit depth                                : 16 bits
  40. Compression mode                         : Lossy
  41. Stream size                              : 396 MiB (6%)
  42. Language                                 : English
  43. Service kind                             : Complete Main
  44. Default                                  : Yes
  45. Forced                                   : No

  46. Text
  47. ID                                       : 3
  48. Format                                   : UTF-8
  49. Codec ID                                 : S_TEXT/UTF8
  50. Codec ID/Info                            : UTF-8 Plain Text
  51. Language                                 : English
  52. Default                                  : No
  53. Forced                                   : No

  54. Menu
  55. 00:00:00.000                             : en:01
  56. 00:04:59.292                             : en:02
  57. 00:11:37.125                             : en:03
  58. 00:15:09.625                             : en:04
  59. 00:21:55.583                             : en:05
  60. 00:26:17.792                             : en:06
  61. 00:31:47.833                             : en:07
  62. 00:36:53.542                             : en:08
  63. 00:42:07.417                             : en:09
  64. 00:49:36.458                             : en:10
  65. 00:56:59.000                             : en:11
  66. 01:02:45.000                             : en:12
  67. 01:08:34.333                             : en:13
  68. 01:13:11.500                             : en:14
  69. 01:18:41.833                             : en:15
  70. 01:23:52.208                             : en:16
复制代码

复制代码

疯羊/羊人 Black.Sheep.2006.1080p.BluRay.x264-TiMELORDS 6.56GB-2.png 疯羊/羊人 Black.Sheep.2006.1080p.BluRay.x264-TiMELORDS 6.56GB-3.png 疯羊/羊人 Black.Sheep.2006.1080p.BluRay.x264-TiMELORDS 6.56GB-4.png







回复

使用道具 举报

蓝光币
1244
发表于 2018-9-9 12:16:28 | 显示全部楼层
老电影  支持一下   !!!!!!!!!!!!!!!!!!!!!!!
回复 支持 反对

使用道具 举报

懒得打字嘛,点击右侧快捷回复 【右侧内容,后台自定义】
您需要登录后才可以回帖 登录 | 立即加入

本版积分规则

Archiver|小黑屋| 蓝光电影网 |网站地图

Copyright © 2021 Comsenz Inc. Powered by 蓝光电影网

蓝光电影网

本站内容由用户自主分享和转载自互联网,转载目的在于传递更多信息,并不代表本网赞同其观点和对其真实性负责。

如有侵权、违反国家法律政策行为,请联系我们,我们会第一时间及时清除和处理!

举报反馈邮箱:[email protected]

快速回复 返回顶部 返回列表