找回密码

蓝光电影网

查看: 3549|回复: 1

[剧情] 大鱼/大鱼奇缘 Big.Fish.2003.1080p.BluRay.x264-TIMELORDS 7.95GB

[复制链接]
蓝光币
623
发表于 2018-9-4 09:48:07 | 显示全部楼层 |阅读模式

大鱼/大鱼奇缘 Big.Fish.2003.1080p.BluRay.x264-TIMELORDS 7.95GB-1.jpg
◎译  名 大鱼/大鱼奇缘(港)/大智若鱼(台)/大鱼爸爸
◎片  名 Big Fish
◎年  代 2003
◎产  地 美国
◎类  别 剧情/家庭/奇异/冒险
◎语  言 英语/法语/俄语/粤语/汉语普通话
◎上映日期 2003-12-04(纽约首映)/2004-01-09(美国)
◎豆瓣评分 8.7/10 from 288,176 users
◎豆瓣链接 https://movie.douban.com/subject/1291545/
◎片  长 125 分钟
◎导  演 蒂姆·波顿 Tim Burton
◎主  演 伊万·麦克格雷格 Ewan McGregor
      阿尔伯特·芬尼 Albert Finney
      比利·克鲁德普 Billy Crudup
      杰西卡·兰格 Jessica Lange
      海伦娜·伯翰·卡特 Helena Bonham Carter
      艾莉森·洛曼 Alison Lohman
      罗伯特·吉尔劳姆 Robert Guillaume
      玛丽昂·歌迪亚 Marion Cotillard
      马修·麦克格罗里 Matthew McGrory
      大卫·丹曼 David Denman
      米西·派勒 Missi Pyle
      卢顿·万恩怀特三世 Loudon Wainwright III
      艾达·泰 ada tai
      艾伦妮·泰 Arlene tai
      史蒂夫·布西密 Steve Buscemi
      丹尼·德维托 Danny DeVito
      迪普·罗伊 Deep Roy
      海利·安妮·内尔森 Hailey Anne Nelson

◎简  介

  爱德华(伊万·麦克格雷格 Ewan McGregor 饰)素性酷爱自在,成年以后,他挑选分开故乡,踏上了周游天下的旅程。一路上,爱德华碰见了各类百般希奇怪僻的脚色,履历了无数出色绝伦的的冒险,而他往后最大的爱好,就是向他人三言两语的反复报告他的这一段奇异旅程。
  威尔(比利·克鲁德普 Billy Crudup 饰)是爱德华的儿子,他并不相信父亲所报告的那些光怪陆离的故事,甚至对此感应非常腻烦。婚后,他同父亲中断了联系,一晃眼就是数年曩昔。当再次获得爱德华的消息之时,威尔才晓得父亲行将未几于人世,他决议去见爱德华最初一面。但是,这一次,威尔终究发现了隐藏在这些故事背后的奥秘和真相。

◎获奖情况

  第76届奥斯卡金像奖  (2004)
  最好原创配乐(提名) 丹尼·艾夫曼

  第57届英国电影学院奖  (2004)
  电影奖 最好影片(提名) 理查德·D·扎努克 / 丹·金克斯 / 布鲁斯·科恩
  电影奖 最好导演(提名) 蒂姆·波顿
  电影奖 最好男配角(提名) 阿尔伯特·芬尼
  电影奖 最好改编剧本(提名) 约翰·奥古斯特
  电影奖 最好化装/发型(提名) 琼·安·布兰克 / Paul LeBlanc
  电影奖 最好艺术指导(提名) 丹尼斯·加斯纳
  电影奖 最好特别视觉结果(提名) Seth Maury / Lindsay MacGowan / Paddy Eason / Kevin Scott Mack

  1. Video
  2. ID                                       : 1
  3. Format                                   : AVC
  4. Format/Info                              : Advanced Video Codec
  5. Format profile                           : [url=/cdn-cgi/l/email-protection][email protected][/url]
  6. Format settings                          : CABAC / 4 Ref Frames
  7. Format settings, CABAC                   : Yes
  8. Format settings, ReFrames                : 4 frames
  9. Codec ID                                 : V_MPEG4/ISO/AVC
  10. Duration                                 : 2 h 5 min
  11. Bit rate                                 : 8 447 kb/s
  12. Width                                    : 1 920 pixels
  13. Height                                   : 1 040 pixels
  14. Display aspect ratio                     : 1.85:1
  15. Frame rate mode                          : Constant
  16. Frame rate                               : 23.976 FPS
  17. Color space                              : YUV
  18. Chroma subsampling                       : 4:2:0
  19. Bit depth                                : 8 bits
  20. Scan type                                : Progressive
  21. Bits/(Pixel*Frame)                       : 0.176
  22. Stream size                              : 7.23 GiB (91%)
  23. Writing library                          : x264 core 58 r763M 0949975
  24. Encoding settings                        : cabac=1 / ref=4 / deblock=1:0:0 / analyse=0x1:0x111 / me=umh / subme=6 / me-prepass=0 / brdo=1 / mixed_ref=1 / me_range=16 / chroma_me=1 / trellis=1 / 8x8dct=0 / cqm=0 / deadzone=10,6 / chroma_qp_offset=0 / threads=6 / nr=0 / decimate=1 / mbaff=0 / bframes=3 / b_pyramid=1 / b_adapt=1 / b_bias=0 / direct=1 / wpredb=1 / bime=1 / keyint=250 / keyint_min=25 / scenecut=40(pre) / rc=2pass / bitrate=8447 / ratetol=1.0 / rceq=\'blurCplx^(1-qComp)\' / qcomp=1.00 / qpmin=10 / qpmax=51 / qpstep=4 / cplxblur=20.0 / qblur=0.5 / ip_ratio=1.40 / pb_ratio=1.30 / aq=1:0.6:13.0
  25. Default                                  : Yes
  26. Forced                                   : No

  27. Audio
  28. ID                                       : 2
  29. Format                                   : AC-3
  30. Format/Info                              : Audio Coding 3
  31. Codec ID                                 : A_AC3
  32. Duration                                 : 2 h 5 min
  33. Bit rate mode                            : Constant
  34. Bit rate                                 : 640 kb/s
  35. Channel(s)                               : 6 channels
  36. Channel positions                        : Front: L C R, Side: L R, LFE
  37. Sampling rate                            : 48.0 kHz
  38. Frame rate                               : 31.250 FPS (1536 SPF)
  39. Bit depth                                : 16 bits
  40. Compression mode                         : Lossy
  41. Stream size                              : 573 MiB (7%)
  42. Service kind                             : Complete Main
  43. Default                                  : Yes
  44. Forced                                   : No

  45. Text
  46. ID                                       : 3
  47. Format                                   : UTF-8
  48. Codec ID                                 : S_TEXT/UTF8
  49. Codec ID/Info                            : UTF-8 Plain Text
  50. Title                                    : English
  51. Language                                 : English
  52. Default                                  : Yes
  53. Forced                                   : No
复制代码

复制代码

大鱼/大鱼奇缘 Big.Fish.2003.1080p.BluRay.x264-TIMELORDS 7.95GB-2.png 大鱼/大鱼奇缘 Big.Fish.2003.1080p.BluRay.x264-TIMELORDS 7.95GB-3.png 大鱼/大鱼奇缘 Big.Fish.2003.1080p.BluRay.x264-TIMELORDS 7.95GB-4.png







回复

使用道具 举报

蓝光币
1243
发表于 2018-9-9 12:19:46 | 显示全部楼层
经典 !!!!!!!!!!!!!老电影  !!!!!!!!!!!!!!!!!!!
回复 支持 反对

使用道具 举报

懒得打字嘛,点击右侧快捷回复 【右侧内容,后台自定义】
您需要登录后才可以回帖 登录 | 立即加入

本版积分规则

Archiver|小黑屋| 蓝光电影网 |网站地图

Copyright © 2021 Comsenz Inc. Powered by 蓝光电影网

蓝光电影网

本站内容由用户自主分享和转载自互联网,转载目的在于传递更多信息,并不代表本网赞同其观点和对其真实性负责。

如有侵权、违反国家法律政策行为,请联系我们,我们会第一时间及时清除和处理!

举报反馈邮箱:[email protected]

快速回复 返回顶部 返回列表