找回密码

蓝光电影网

查看: 1167|回复: 1

[剧情] 啤酒联盟/啤酒同盟 Beer.League.2006.LiMiTED.1080p.BluRay.x264-TiMELORDS 6.56GB

[复制链接]
蓝光币
623
发表于 2018-9-4 09:48:31 | 显示全部楼层 |阅读模式

啤酒同盟/啤酒同盟 Beer.League.2006.LiMiTED.1080p.BluRay.x264-TiMELORDS 6.56GB-1.jpg
◎译  名 啤酒同盟/啤酒同盟
◎片  名 Beer League
◎年  代 2006
◎产  地 美国
◎语  言 英语
◎上映日期 2006-09-15
◎豆瓣评分 /10 from 0 users
◎豆瓣链接 https://movie.douban.com/subject/2364175/
◎导  演 Frank Sebastiano
◎主  演 阿尔蒂·兰格 Artie Lange
      卡拉·布欧诺 Cara Buono
      伊丽莎白·瑞根 Elizabeth Regen
      拉尔夫·马奇妙 Ralph Macchio

◎简  介

  仆人公阿蒂是一个待业青年,年数不小却仍和老妈住在一路。他和狐朋狗友构造了一支垒球队,原本只是想玩玩而已。成果却遇上了由阿蒂高中时辰的老朋友所率领的另一队,新仇旧怨叠加在一路,角逐升级成了战役。阿蒂和他的球队必须团结一心在赛季里将名次从末位提升到首位,否则他们将永久被踢出地方同盟……

  1. Video
  2. ID                                       : 1
  3. Format                                   : AVC
  4. Format/Info                              : Advanced Video Codec
  5. Format profile                           : [url=/cdn-cgi/l/email-protection][email protected][/url]
  6. Format settings                          : CABAC / 4 Ref Frames
  7. Format settings, CABAC                   : Yes
  8. Format settings, ReFrames                : 4 frames
  9. Codec ID                                 : V_MPEG4/ISO/AVC
  10. Duration                                 : 1 h 26 min
  11. Bit rate                                 : 10.4 Mb/s
  12. Width                                    : 1 920 pixels
  13. Height                                   : 1 080 pixels
  14. Display aspect ratio                     : 16:9
  15. Frame rate mode                          : Constant
  16. Frame rate                               : 23.976 (24000/1001) FPS
  17. Color space                              : YUV
  18. Chroma subsampling                       : 4:2:0
  19. Bit depth                                : 8 bits
  20. Scan type                                : Progressive
  21. Bits/(Pixel*Frame)                       : 0.209
  22. Stream size                              : 6.16 GiB (94%)
  23. Writing library                          : x264 core 67 r1169M ab85c9b
  24. Encoding settings                        : cabac=1 / ref=4 / deblock=1:0:0 / analyse=0x3:0x133 / me=umh / subme=7 / psy_rd=1.0:0.0 / mixed_ref=1 / me_range=16 / chroma_me=1 / trellis=2 / 8x8dct=1 / cqm=0 / deadzone=21,11 / chroma_qp_offset=-2 / threads=12 / nr=0 / decimate=0 / mbaff=0 / bframes=3 / b_pyramid=1 / b_adapt=1 / b_bias=0 / direct=1 / wpredb=1 / keyint=250 / keyint_min=25 / scenecut=40 / rc=2pass / bitrate=10388 / ratetol=1.0 / qcomp=0.60 / qpmin=10 / qpmax=51 / qpstep=4 / cplxblur=20.0 / qblur=0.5 / ip_ratio=1.40 / pb_ratio=1.30 / aq=1:1.00
  25. Default                                  : Yes
  26. Forced                                   : No

  27. Audio
  28. ID                                       : 2
  29. Format                                   : AC-3
  30. Format/Info                              : Audio Coding 3
  31. Codec ID                                 : A_AC3
  32. Duration                                 : 1 h 26 min
  33. Bit rate mode                            : Constant
  34. Bit rate                                 : 448 kb/s
  35. Channel(s)                               : 6 channels
  36. Channel positions                        : Front: L C R, Side: L R, LFE
  37. Sampling rate                            : 48.0 kHz
  38. Frame rate                               : 31.250 FPS (1536 SPF)
  39. Bit depth                                : 16 bits
  40. Compression mode                         : Lossy
  41. Stream size                              : 278 MiB (4%)
  42. Language                                 : English
  43. Service kind                             : Complete Main
  44. Default                                  : Yes
  45. Forced                                   : No

  46. Menu
  47. 00:00:00.000                             : en:01
  48. 00:02:56.676                             : en:02
  49. 00:11:47.206                             : en:03
  50. 00:19:51.690                             : en:04
  51. 00:25:31.530                             : en:05
  52. 00:33:02.981                             : en:06
  53. 00:39:34.372                             : en:07
  54. 00:42:30.548                             : en:08
  55. 00:49:09.446                             : en:09
  56. 00:51:22.579                             : en:10
  57. 00:58:47.023                             : en:11
  58. 01:05:28.925                             : en:12
  59. 01:08:27.603                             : en:13
  60. 01:13:03.879                             : en:14
  61. 01:22:09.925                             : en:15
复制代码

复制代码

啤酒同盟/啤酒同盟 Beer.League.2006.LiMiTED.1080p.BluRay.x264-TiMELORDS 6.56GB-2.png 啤酒同盟/啤酒同盟 Beer.League.2006.LiMiTED.1080p.BluRay.x264-TiMELORDS 6.56GB-3.png 啤酒同盟/啤酒同盟 Beer.League.2006.LiMiTED.1080p.BluRay.x264-TiMELORDS 6.56GB-4.png






回复

使用道具 举报

蓝光币
1248
发表于 2018-9-9 12:14:39 | 显示全部楼层
支持一下    !!!!!!!!!!!!!!!!!!!!!
回复 支持 反对

使用道具 举报

懒得打字嘛,点击右侧快捷回复 【右侧内容,后台自定义】
您需要登录后才可以回帖 登录 | 立即加入

本版积分规则

Archiver|小黑屋| 蓝光电影网 |网站地图

Copyright © 2021 Comsenz Inc. Powered by 蓝光电影网

蓝光电影网

本站内容由用户自主分享和转载自互联网,转载目的在于传递更多信息,并不代表本网赞同其观点和对其真实性负责。

如有侵权、违反国家法律政策行为,请联系我们,我们会第一时间及时清除和处理!

举报反馈邮箱:[email protected]

快速回复 返回顶部 返回列表