找回密码

蓝光电影网

查看: 1255|回复: 1

[喜剧] 警察故事續集 Police.Story.2.1988.CHINESE.REMASTERED.1080p.BluRay.REMUX.AVC.DTS-HD.MA.5.1-FGT 34.36GB

[复制链接]
蓝光币
623
发表于 2018-9-4 09:54:14 | 显示全部楼层 |阅读模式

差人故事續集 Police.Story.2.1988.CHINESE.REMASTERED.1080p.BluRay.REMUX.AVC.DTS-HD.MA.5.1-FGT 34.36GB-1.jpg
◎译  名 差人故事续集/差人故事2
◎片  名 差人故事續集
◎年  代 1988
◎产  地 香港
◎类  别 笑剧/行动/犯罪
◎语  言 粤语
◎上映日期 1988-08-20(香港)
◎豆瓣评分 7.3/10 from 27,722 users
◎豆瓣链接 https://movie.douban.com/subject/1304726/
◎片  长 101分钟
◎导  演 成龙 Jackie Chan
◎主  演 成龙 Jackie Chan
      张曼玉 Maggie Cheung
      陈国新 Dennis Chan
      楚原 Yuen Chor
      曹查理 Charlie Cho

◎简  介

  豪杰差人陈家驹(成龙 饰)又返来了。不外,性情火爆、直抒己见的他此次由于不满足下属放走了一个极为危险的重犯而和下属吵翻了,愤然告退。离开了差人生活的家驹和女友去观光时代,一间电话公司遭到了炸弹恐吓,赋性难移的家驹顿时赶到了现场,动手观察案件。
  岂料一波未平,一波又起。这个炸弹狂徒居然炸毁了警局的大门,还绑架了家驹的女友,要求家驹照顾大量赎款前往堆栈交换人质。当家驹身带巨款到达堆栈时,发现这里已经布满了炸弹……

◎获奖情况

  第25届台北金马影展  (1988)
  金马奖 最好剧情片(提名)
  金马奖 最好美术设想 黄锐民

  第8届香港电影金像奖  (1989)
  最好行动设想

  1. Video
  2. ID                                       : 1
  3. Format                                   : AVC
  4. Format/Info                              : Advanced Video Codec
  5. Format profile                           : [url=/cdn-cgi/l/email-protection][email protected][/url]
  6. Format settings                          : CABAC / 3 Ref Frames
  7. Format settings, CABAC                   : Yes
  8. Format settings, ReFrames                : 3 frames
  9. Codec ID                                 : V_MPEG4/ISO/AVC
  10. Duration                                 : 2 h 1 min
  11. Bit rate mode                            : Variable
  12. Bit rate                                 : 30.0 Mb/s
  13. Maximum bit rate                         : 35.0 Mb/s
  14. Width                                    : 1 920 pixels
  15. Height                                   : 1 080 pixels
  16. Display aspect ratio                     : 16:9
  17. Frame rate mode                          : Constant
  18. Frame rate                               : 23.976 (24000/1001) FPS
  19. Color space                              : YUV
  20. Chroma subsampling                       : 4:2:0
  21. Bit depth                                : 8 bits
  22. Scan type                                : Progressive
  23. Bits/(Pixel*Frame)                       : 0.603
  24. Stream size                              : 25.5 GiB (74%)
  25. Title                                    : Police.Story.2.1988.CHINESE.REMASTERED.1080p.BluRay.REMUX.AVC.DTS-HD.MA.5.1-FGT
  26. Language                                 : English
  27. Default                                  : No
  28. Forced                                   : No
  29. Color range                              : Limited
  30. Color primaries                          : BT.709
  31. Transfer characteristics                 : BT.709
  32. Matrix coefficients                      : BT.709

  33. Audio #1
  34. ID                                       : 2
  35. Format                                   : DTS
  36. Format/Info                              : Digital Theater Systems
  37. Format profile                           : MA / Core
  38. Codec ID                                 : A_DTS
  39. Duration                                 : 2 h 1 min
  40. Bit rate mode                            : Variable / Constant
  41. Bit rate                                 : 4 080 kb/s / 768 kb/s
  42. Channel(s)                               : 6 channels
  43. Channel positions                        : Front: L C R, Side: L R, LFE
  44. Sampling rate                            : 48.0 kHz
  45. Frame rate                               : 93.750 FPS (512 SPF)
  46. Bit depth                                : 24 bits
  47. Compression mode                         : Lossless / Lossy
  48. Stream size                              : 3.47 GiB (10%)
  49. Title                                    : Police.Story.2.1988.CHINESE.REMASTERED.1080p.BluRay.REMUX.AVC.DTS-HD.MA.5.1-FGT
  50. Language                                 : Chinese
  51. Default                                  : Yes
  52. Forced                                   : No

  53. Audio #2
  54. ID                                       : 3
  55. Format                                   : DTS
  56. Format/Info                              : Digital Theater Systems
  57. Codec ID                                 : A_DTS
  58. Duration                                 : 2 h 1 min
  59. Bit rate mode                            : Constant
  60. Bit rate                                 : 768 kb/s
  61. Channel(s)                               : 6 channels
  62. Channel positions                        : Front: L C R, Side: L R, LFE
  63. Sampling rate                            : 48.0 kHz
  64. Frame rate                               : 93.750 FPS (512 SPF)
  65. Bit depth                                : 24 bits
  66. Compression mode                         : Lossy
  67. Stream size                              : 670 MiB (2%)
  68. Title                                    : Police.Story.2.1988.CHINESE.REMASTERED.1080p.BluRay.REMUX.AVC.DTS-HD.MA.5.1-FGT
  69. Language                                 : Chinese
  70. Default                                  : No
  71. Forced                                   : No

  72. Audio #3
  73. ID                                       : 4
  74. Format                                   : PCM
  75. Format settings                          : Little / Signed
  76. Codec ID                                 : A_PCM/INT/LIT
  77. Duration                                 : 2 h 1 min
  78. Bit rate mode                            : Constant
  79. Bit rate                                 : 768 kb/s
  80. Sampling rate                            : 48.0 kHz
  81. Frame rate                               : 30.000 FPS (1600 SPF)
  82. Bit depth                                : 16 bits
  83. Stream size                              : 670 MiB (2%)
  84. Title                                    : Police.Story.2.1988.CHINESE.REMASTERED.1080p.BluRay.REMUX.AVC.DTS-HD.MA.5.1-FGT
  85. Language                                 : Chinese
  86. Default                                  : No
  87. Forced                                   : No

  88. Audio #4
  89. ID                                       : 5
  90. Format                                   : DTS
  91. Format/Info                              : Digital Theater Systems
  92. Format profile                           : MA / Core
  93. Codec ID                                 : A_DTS
  94. Duration                                 : 2 h 1 min
  95. Bit rate mode                            : Variable / Constant
  96. Bit rate                                 : 3 965 kb/s / 768 kb/s
  97. Channel(s)                               : 6 channels
  98. Channel positions                        : Front: L C R, Side: L R, LFE
  99. Sampling rate                            : 48.0 kHz
  100. Frame rate                               : 93.750 FPS (512 SPF)
  101. Bit depth                                : 24 bits
  102. Compression mode                         : Lossless / Lossy
  103. Stream size                              : 3.38 GiB (10%)
  104. Title                                    : Police.Story.2.1988.CHINESE.REMASTERED.1080p.BluRay.REMUX.AVC.DTS-HD.MA.5.1-FGT
  105. Language                                 : English
  106. Default                                  : No
  107. Forced                                   : No

  108. Audio #5
  109. ID                                       : 6
  110. Format                                   : DTS
  111. Format/Info                              : Digital Theater Systems
  112. Codec ID                                 : A_DTS
  113. Duration                                 : 2 h 1 min
  114. Bit rate mode                            : Constant
  115. Bit rate                                 : 768 kb/s
  116. Channel(s)                               : 6 channels
  117. Channel positions                        : Front: L C R, Side: L R, LFE
  118. Sampling rate                            : 48.0 kHz
  119. Frame rate                               : 93.750 FPS (512 SPF)
  120. Bit depth                                : 24 bits
  121. Compression mode                         : Lossy
  122. Stream size                              : 670 MiB (2%)
  123. Title                                    : Police.Story.2.1988.CHINESE.REMASTERED.1080p.BluRay.REMUX.AVC.DTS-HD.MA.5.1-FGT
  124. Language                                 : English
  125. Default                                  : No
  126. Forced                                   : No

  127. Text
  128. ID                                       : 7
  129. Format                                   : PGS
  130. Muxing mode                              : zlib
  131. Codec ID                                 : S_HDMV/PGS
  132. Codec ID/Info                            : Picture based subtitle format used on BDs/HD-DVDs
  133. Duration                                 : 1 h 54 min
  134. Bit rate                                 : 30.5 kb/s
  135. Count of elements                        : 2696
  136. Stream size                              : 25.0 MiB (0%)
  137. Title                                    : English-PGS
  138. Language                                 : English
  139. Default                                  : Yes
  140. Forced                                   : Yes

  141. Menu
  142. 00:00:00.000                             : en:Chapter 01
  143. 00:10:23.497                             : en:Chapter 02
  144. 00:20:18.508                             : en:Chapter 03
  145. 00:30:21.736                             : en:Chapter 04
  146. 00:34:49.962                             : en:Chapter 05
  147. 00:40:07.571                             : en:Chapter 06
  148. 00:50:41.455                             : en:Chapter 07
  149. 01:00:35.089                             : en:Chapter 08
  150. 01:11:06.637                             : en:Chapter 09
  151. 01:21:13.577                             : en:Chapter 10
  152. 01:32:35.007                             : en:Chapter 11
  153. 01:43:29.828                             : en:Chapter 12
  154. 01:52:26.948                             : en:Chapter 13
  155. 01:59:01.092                             : en:Chapter 14
复制代码

复制代码

差人故事續集 Police.Story.2.1988.CHINESE.REMASTERED.1080p.BluRay.REMUX.AVC.DTS-HD.MA.5.1-FGT 34.36GB-2.png 差人故事續集 Police.Story.2.1988.CHINESE.REMASTERED.1080p.BluRay.REMUX.AVC.DTS-HD.MA.5.1-FGT 34.36GB-3.png 差人故事續集 Police.Story.2.1988.CHINESE.REMASTERED.1080p.BluRay.REMUX.AVC.DTS-HD.MA.5.1-FGT 34.36GB-4.png






回复

使用道具 举报

蓝光币
741
发表于 2019-12-14 17:44:22 | 显示全部楼层
怪兽阿飞069 发表于 2019-12-14 16:17
下不了 扣我俩蓝光币 鈤:

可以下载,是你下载工具的问题
回复 支持 反对

使用道具 举报

懒得打字嘛,点击右侧快捷回复 【右侧内容,后台自定义】
您需要登录后才可以回帖 登录 | 立即加入

本版积分规则

Archiver|小黑屋| 蓝光电影网 |网站地图

Copyright © 2021 Comsenz Inc. Powered by 蓝光电影网

蓝光电影网

本站内容由用户自主分享和转载自互联网,转载目的在于传递更多信息,并不代表本网赞同其观点和对其真实性负责。

如有侵权、违反国家法律政策行为,请联系我们,我们会第一时间及时清除和处理!

举报反馈邮箱:[email protected]

快速回复 返回顶部 返回列表