找回密码

蓝光电影网

查看: 1463|回复: 2

[喜剧] 大话王/王牌大骗子 Liar.Liar.1997.1080p.BluRay.REMUX.VC-1.DTS-HD.MA.5.1-FGT 16.11GB

[复制链接]
蓝光币
623
发表于 2018-9-4 09:55:13 | 显示全部楼层 |阅读模式

鬼话王/王牌大骗子 Liar.Liar.1997.1080p.BluRay.REMUX.VC-1.DTS-HD.MA.5.1-FGT 16.11GB-1.jpg
◎译  名 鬼话王/王牌大骗子(台)/扯谎者
◎片  名 Liar Liar
◎年  代 1997
◎产  地 美国
◎类  别 笑剧/奇异
◎语  言 英语
◎上映日期 1997-03-21
◎豆瓣评分 7.6/10 from 46,285 users
◎豆瓣链接 https://movie.douban.com/subject/1295318/
◎片  长 86 分钟
◎导  演 汤姆·沙迪亚克 Tom Shadyac
◎主  演 金·凯瑞 Jim Carrey
      毛拉·蒂尔内 Maura Tierney
      贾斯汀·库珀 Justin Cooper
      加利·艾尔维斯 Cary Elwes
      珍妮佛·提莉 Jennifer Tilly

◎简  介

  弗莱切(金?凯瑞 Jim Carrey 饰)是个著名的大律师,为获得讼事的成功,他练就一身颠却是非、改变黑白的本事,那就是,大话连连。说慌已经成为了弗莱切的本能反应,就连面临妻子和5岁的儿子麦克斯(Justin Cooper 饰)时都是如此。妻儿也早已习惯了他的风格。
  此日,是麦克斯的生日,弗莱切又因事不能来。弗莱切自然又满口假话编造各类捏词。失望的弗莱切许下了他的生日愿望:父亲有一天不能扯谎了。奇异的工作发生了!弗莱切真的不能扯谎了,他是以洋相连连:差点输掉讼事、获咎下属……堕入空前紊乱的弗莱切终极若何面临这一切?

  1. Video
  2. ID                                       : 1
  3. Format                                   : VC-1
  4. Format profile                           : [url=/cdn-cgi/l/email-protection][email protected][/url]
  5. Codec ID                                 : V_MS/VFW/FOURCC / WVC1
  6. Codec ID/Hint                            : Microsoft
  7. Duration                                 : 1 h 26 min
  8. Bit rate                                 : 16.0 Mb/s
  9. Width                                    : 1 920 pixels
  10. Height                                   : 1 080 pixels
  11. Display aspect ratio                     : 16:9
  12. Frame rate mode                          : Constant
  13. Frame rate                               : 23.976 (24000/1001) FPS
  14. Color space                              : YUV
  15. Chroma subsampling                       : 4:2:0
  16. Bit depth                                : 8 bits
  17. Scan type                                : Progressive
  18. Compression mode                         : Lossy
  19. Bits/(Pixel*Frame)                       : 0.323
  20. Stream size                              : 9.69 GiB (60%)
  21. Title                                    : Liar.Liar.1997.1080p.BluRay.REMUX.VC-1.DTS-HD.MA.5.1-FGT
  22. Language                                 : English
  23. Default                                  : No
  24. Forced                                   : No

  25. Audio #1
  26. ID                                       : 2
  27. Format                                   : DTS
  28. Format/Info                              : Digital Theater Systems
  29. Codec ID                                 : A_DTS
  30. Duration                                 : 1 h 26 min
  31. Bit rate mode                            : Constant
  32. Bit rate                                 : 768 kb/s
  33. Channel(s)                               : 6 channels
  34. Channel positions                        : Front: L C R, Side: L R, LFE
  35. Sampling rate                            : 48.0 kHz
  36. Frame rate                               : 93.750 FPS (512 SPF)
  37. Bit depth                                : 24 bits
  38. Compression mode                         : Lossy
  39. Stream size                              : 475 MiB (3%)
  40. Title                                    : Liar.Liar.1997.1080p.BluRay.REMUX.VC-1.DTS-HD.MA.5.1-FGT
  41. Language                                 : Japanese
  42. Default                                  : Yes
  43. Forced                                   : No

  44. Audio #2
  45. ID                                       : 3
  46. Format                                   : DTS
  47. Format/Info                              : Digital Theater Systems
  48. Format profile                           : MA / Core
  49. Codec ID                                 : A_DTS
  50. Duration                                 : 1 h 26 min
  51. Bit rate mode                            : Variable / Constant
  52. Bit rate                                 : 2 755 kb/s / 1 509 kb/s
  53. Channel(s)                               : 6 channels
  54. Channel positions                        : Front: L C R, Side: L R, LFE
  55. Sampling rate                            : 48.0 kHz
  56. Frame rate                               : 93.750 FPS (512 SPF)
  57. Bit depth                                : 24 bits
  58. Compression mode                         : Lossless / Lossy
  59. Stream size                              : 1.66 GiB (10%)
  60. Title                                    : Liar.Liar.1997.1080p.BluRay.REMUX.VC-1.DTS-HD.MA.5.1-FGT
  61. Language                                 : English
  62. Default                                  : No
  63. Forced                                   : No

  64. Audio #3
  65. ID                                       : 4
  66. Format                                   : DTS
  67. Format/Info                              : Digital Theater Systems
  68. Codec ID                                 : A_DTS
  69. Duration                                 : 1 h 26 min
  70. Bit rate mode                            : Constant
  71. Bit rate                                 : 1 509 kb/s
  72. Channel(s)                               : 6 channels
  73. Channel positions                        : Front: L C R, Side: L R, LFE
  74. Sampling rate                            : 48.0 kHz
  75. Frame rate                               : 93.750 FPS (512 SPF)
  76. Bit depth                                : 24 bits
  77. Compression mode                         : Lossy
  78. Stream size                              : 934 MiB (6%)
  79. Title                                    : Liar.Liar.1997.1080p.BluRay.REMUX.VC-1.DTS-HD.MA.5.1-FGT
  80. Language                                 : English
  81. Default                                  : No
  82. Forced                                   : No

  83. Audio #4
  84. ID                                       : 5
  85. Format                                   : DTS
  86. Format/Info                              : Digital Theater Systems
  87. Codec ID                                 : A_DTS
  88. Duration                                 : 1 h 26 min
  89. Bit rate mode                            : Constant
  90. Bit rate                                 : 768 kb/s
  91. Channel(s)                               : 6 channels
  92. Channel positions                        : Front: L C R, Side: L R, LFE
  93. Sampling rate                            : 48.0 kHz
  94. Frame rate                               : 93.750 FPS (512 SPF)
  95. Bit depth                                : 24 bits
  96. Compression mode                         : Lossy
  97. Stream size                              : 475 MiB (3%)
  98. Title                                    : Liar.Liar.1997.1080p.BluRay.REMUX.VC-1.DTS-HD.MA.5.1-FGT
  99. Language                                 : French
  100. Default                                  : No
  101. Forced                                   : No

  102. Audio #5
  103. ID                                       : 6
  104. Format                                   : DTS
  105. Format/Info                              : Digital Theater Systems
  106. Codec ID                                 : A_DTS
  107. Duration                                 : 1 h 26 min
  108. Bit rate mode                            : Constant
  109. Bit rate                                 : 768 kb/s
  110. Channel(s)                               : 6 channels
  111. Channel positions                        : Front: L C R, Side: L R, LFE
  112. Sampling rate                            : 48.0 kHz
  113. Frame rate                               : 93.750 FPS (512 SPF)
  114. Bit depth                                : 24 bits
  115. Compression mode                         : Lossy
  116. Stream size                              : 475 MiB (3%)
  117. Title                                    : Liar.Liar.1997.1080p.BluRay.REMUX.VC-1.DTS-HD.MA.5.1-FGT
  118. Language                                 : Italian
  119. Default                                  : No
  120. Forced                                   : No

  121. Audio #6
  122. ID                                       : 7
  123. Format                                   : DTS
  124. Format/Info                              : Digital Theater Systems
  125. Codec ID                                 : A_DTS
  126. Duration                                 : 1 h 26 min
  127. Bit rate mode                            : Constant
  128. Bit rate                                 : 768 kb/s
  129. Channel(s)                               : 6 channels
  130. Channel positions                        : Front: L C R, Side: L R, LFE
  131. Sampling rate                            : 48.0 kHz
  132. Frame rate                               : 93.750 FPS (512 SPF)
  133. Bit depth                                : 24 bits
  134. Compression mode                         : Lossy
  135. Stream size                              : 475 MiB (3%)
  136. Title                                    : Liar.Liar.1997.1080p.BluRay.REMUX.VC-1.DTS-HD.MA.5.1-FGT
  137. Language                                 : German
  138. Default                                  : No
  139. Forced                                   : No

  140. Audio #7
  141. ID                                       : 8
  142. Format                                   : DTS
  143. Format/Info                              : Digital Theater Systems
  144. Codec ID                                 : A_DTS
  145. Duration                                 : 1 h 26 min
  146. Bit rate mode                            : Constant
  147. Bit rate                                 : 768 kb/s
  148. Channel(s)                               : 6 channels
  149. Channel positions                        : Front: L C R, Side: L R, LFE
  150. Sampling rate                            : 48.0 kHz
  151. Frame rate                               : 93.750 FPS (512 SPF)
  152. Bit depth                                : 24 bits
  153. Compression mode                         : Lossy
  154. Stream size                              : 475 MiB (3%)
  155. Title                                    : Liar.Liar.1997.1080p.BluRay.REMUX.VC-1.DTS-HD.MA.5.1-FGT
  156. Language                                 : Spanish
  157. Default                                  : No
  158. Forced                                   : No

  159. Audio #8
  160. ID                                       : 9
  161. Format                                   : DTS
  162. Format/Info                              : Digital Theater Systems
  163. Codec ID                                 : A_DTS
  164. Duration                                 : 1 h 26 min
  165. Bit rate mode                            : Constant
  166. Bit rate                                 : 768 kb/s
  167. Channel(s)                               : 6 channels
  168. Channel positions                        : Front: L C R, Side: L R, LFE
  169. Sampling rate                            : 48.0 kHz
  170. Frame rate                               : 93.750 FPS (512 SPF)
  171. Bit depth                                : 24 bits
  172. Compression mode                         : Lossy
  173. Stream size                              : 475 MiB (3%)
  174. Title                                    : Liar.Liar.1997.1080p.BluRay.REMUX.VC-1.DTS-HD.MA.5.1-FGT
  175. Language                                 : Portuguese
  176. Default                                  : No
  177. Forced                                   : No

  178. Audio #9
  179. ID                                       : 10
  180. Format                                   : DTS
  181. Format/Info                              : Digital Theater Systems
  182. Codec ID                                 : A_DTS
  183. Duration                                 : 1 h 26 min
  184. Bit rate mode                            : Constant
  185. Bit rate                                 : 768 kb/s
  186. Channel(s)                               : 6 channels
  187. Channel positions                        : Front: L C R, Side: L R, LFE
  188. Sampling rate                            : 48.0 kHz
  189. Frame rate                               : 93.750 FPS (512 SPF)
  190. Bit depth                                : 24 bits
  191. Compression mode                         : Lossy
  192. Stream size                              : 475 MiB (3%)
  193. Title                                    : Liar.Liar.1997.1080p.BluRay.REMUX.VC-1.DTS-HD.MA.5.1-FGT
  194. Language                                 : Spanish
  195. Default                                  : No
  196. Forced                                   : No

  197. Audio #10
  198. ID                                       : 11
  199. Format                                   : DTS
  200. Format/Info                              : Digital Theater Systems
  201. Codec ID                                 : A_DTS
  202. Duration                                 : 1 h 26 min
  203. Bit rate mode                            : Constant
  204. Bit rate                                 : 768 kb/s
  205. Channel(s)                               : 2 channels
  206. Channel positions                        : Front: L R
  207. Sampling rate                            : 48.0 kHz
  208. Frame rate                               : 93.750 FPS (512 SPF)
  209. Bit depth                                : 24 bits
  210. Compression mode                         : Lossy
  211. Stream size                              : 475 MiB (3%)
  212. Title                                    : Liar.Liar.1997.1080p.BluRay.REMUX.VC-1.DTS-HD.MA.5.1-FGT
  213. Language                                 : Russian
  214. Default                                  : No
  215. Forced                                   : No

  216. Text #1
  217. ID                                       : 12
  218. Format                                   : PGS
  219. Muxing mode                              : zlib
  220. Codec ID                                 : S_HDMV/PGS
  221. Codec ID/Info                            : Picture based subtitle format used on BDs/HD-DVDs
  222. Duration                                 : 1 h 22 min
  223. Bit rate                                 : 44.3 kb/s
  224. Count of elements                        : 2453
  225. Stream size                              : 26.0 MiB (0%)
  226. Title                                    : English-PGS
  227. Language                                 : English
  228. Default                                  : Yes
  229. Forced                                   : No

  230. Text #2
  231. ID                                       : 13
  232. Format                                   : PGS
  233. Muxing mode                              : zlib
  234. Codec ID                                 : S_HDMV/PGS
  235. Codec ID/Info                            : Picture based subtitle format used on BDs/HD-DVDs
  236. Duration                                 : 1 h 22 min
  237. Bit rate                                 : 26.7 kb/s
  238. Count of elements                        : 2415
  239. Stream size                              : 15.7 MiB (0%)
  240. Title                                    : Japanese-PGS
  241. Language                                 : Japanese
  242. Default                                  : No
  243. Forced                                   : No

  244. Text #3
  245. ID                                       : 14
  246. Format                                   : PGS
  247. Muxing mode                              : zlib
  248. Codec ID                                 : S_HDMV/PGS
  249. Codec ID/Info                            : Picture based subtitle format used on BDs/HD-DVDs
  250. Duration                                 : 1 h 25 min
  251. Bit rate                                 : 41.0 kb/s
  252. Count of elements                        : 2201
  253. Stream size                              : 25.1 MiB (0%)
  254. Title                                    : French-PGS
  255. Language                                 : French
  256. Default                                  : No
  257. Forced                                   : No

  258. Text #4
  259. ID                                       : 15
  260. Format                                   : PGS
  261. Muxing mode                              : zlib
  262. Codec ID                                 : S_HDMV/PGS
  263. Codec ID/Info                            : Picture based subtitle format used on BDs/HD-DVDs
  264. Duration                                 : 1 h 25 min
  265. Bit rate                                 : 38.6 kb/s
  266. Count of elements                        : 2201
  267. Stream size                              : 23.6 MiB (0%)
  268. Title                                    : Italian-PGS
  269. Language                                 : Italian
  270. Default                                  : No
  271. Forced                                   : No

  272. Text #5
  273. ID                                       : 16
  274. Format                                   : PGS
  275. Muxing mode                              : zlib
  276. Codec ID                                 : S_HDMV/PGS
  277. Codec ID/Info                            : Picture based subtitle format used on BDs/HD-DVDs
  278. Duration                                 : 1 h 25 min
  279. Bit rate                                 : 43.4 kb/s
  280. Count of elements                        : 2207
  281. Stream size                              : 26.6 MiB (0%)
  282. Title                                    : German-PGS
  283. Language                                 : German
  284. Default                                  : No
  285. Forced                                   : No

  286. Text #6
  287. ID                                       : 17
  288. Format                                   : PGS
  289. Muxing mode                              : zlib
  290. Codec ID                                 : S_HDMV/PGS
  291. Codec ID/Info                            : Picture based subtitle format used on BDs/HD-DVDs
  292. Duration                                 : 1 h 25 min
  293. Bit rate                                 : 39.2 kb/s
  294. Count of elements                        : 2205
  295. Stream size                              : 24.0 MiB (0%)
  296. Title                                    : Spanish-PGS
  297. Language                                 : Spanish
  298. Default                                  : No
  299. Forced                                   : No

  300. Text #7
  301. ID                                       : 18
  302. Format                                   : PGS
  303. Muxing mode                              : zlib
  304. Codec ID                                 : S_HDMV/PGS
  305. Codec ID/Info                            : Picture based subtitle format used on BDs/HD-DVDs
  306. Duration                                 : 1 h 25 min
  307. Bit rate                                 : 30.6 kb/s
  308. Count of elements                        : 2138
  309. Stream size                              : 18.7 MiB (0%)
  310. Title                                    : Portuguese-PGS
  311. Language                                 : Portuguese
  312. Default                                  : No
  313. Forced                                   : No

  314. Text #8
  315. ID                                       : 19
  316. Format                                   : PGS
  317. Muxing mode                              : zlib
  318. Codec ID                                 : S_HDMV/PGS
  319. Codec ID/Info                            : Picture based subtitle format used on BDs/HD-DVDs
  320. Duration                                 : 1 h 22 min
  321. Bit rate                                 : 35.0 kb/s
  322. Count of elements                        : 2216
  323. Stream size                              : 20.6 MiB (0%)
  324. Title                                    : Spanish-PGS
  325. Language                                 : Spanish
  326. Default                                  : No
  327. Forced                                   : No

  328. Text #9
  329. ID                                       : 20
  330. Format                                   : PGS
  331. Muxing mode                              : zlib
  332. Codec ID                                 : S_HDMV/PGS
  333. Codec ID/Info                            : Picture based subtitle format used on BDs/HD-DVDs
  334. Duration                                 : 1 h 25 min
  335. Bit rate                                 : 40.1 kb/s
  336. Count of elements                        : 2205
  337. Stream size                              : 24.6 MiB (0%)
  338. Title                                    : Danish-PGS
  339. Language                                 : Danish
  340. Default                                  : No
  341. Forced                                   : No

  342. Text #10
  343. ID                                       : 21
  344. Format                                   : PGS
  345. Muxing mode                              : zlib
  346. Codec ID                                 : S_HDMV/PGS
  347. Codec ID/Info                            : Picture based subtitle format used on BDs/HD-DVDs
  348. Duration                                 : 1 h 25 min
  349. Bit rate                                 : 37.3 kb/s
  350. Count of elements                        : 2105
  351. Stream size                              : 22.8 MiB (0%)
  352. Title                                    : Dutch-PGS
  353. Language                                 : Dutch
  354. Default                                  : No
  355. Forced                                   : No

  356. Text #11
  357. ID                                       : 22
  358. Format                                   : PGS
  359. Muxing mode                              : zlib
  360. Codec ID                                 : S_HDMV/PGS
  361. Codec ID/Info                            : Picture based subtitle format used on BDs/HD-DVDs
  362. Duration                                 : 1 h 25 min
  363. Bit rate                                 : 39.2 kb/s
  364. Count of elements                        : 2207
  365. Stream size                              : 24.0 MiB (0%)
  366. Title                                    : Finnish-PGS
  367. Language                                 : Finnish
  368. Default                                  : No
  369. Forced                                   : No

  370. Text #12
  371. ID                                       : 23
  372. Format                                   : PGS
  373. Muxing mode                              : zlib
  374. Codec ID                                 : S_HDMV/PGS
  375. Codec ID/Info                            : Picture based subtitle format used on BDs/HD-DVDs
  376. Duration                                 : 1 h 25 min
  377. Bit rate                                 : 42.3 kb/s
  378. Count of elements                        : 2207
  379. Stream size                              : 25.9 MiB (0%)
  380. Title                                    : Greek-PGS
  381. Language                                 : Greek
  382. Default                                  : No
  383. Forced                                   : No

  384. Text #13
  385. ID                                       : 24
  386. Format                                   : PGS
  387. Muxing mode                              : zlib
  388. Codec ID                                 : S_HDMV/PGS
  389. Codec ID/Info                            : Picture based subtitle format used on BDs/HD-DVDs
  390. Duration                                 : 1 h 25 min
  391. Bit rate                                 : 23.4 kb/s
  392. Count of elements                        : 2399
  393. Stream size                              : 14.3 MiB (0%)
  394. Title                                    : Korean-PGS
  395. Language                                 : Korean
  396. Default                                  : No
  397. Forced                                   : No

  398. Text #14
  399. ID                                       : 25
  400. Format                                   : PGS
  401. Muxing mode                              : zlib
  402. Codec ID                                 : S_HDMV/PGS
  403. Codec ID/Info                            : Picture based subtitle format used on BDs/HD-DVDs
  404. Duration                                 : 1 h 25 min
  405. Bit rate                                 : 36.6 kb/s
  406. Count of elements                        : 2171
  407. Stream size                              : 22.4 MiB (0%)
  408. Title                                    : Norwegian-PGS
  409. Language                                 : Norwegian
  410. Default                                  : No
  411. Forced                                   : No

  412. Text #15
  413. ID                                       : 26
  414. Format                                   : PGS
  415. Muxing mode                              : zlib
  416. Codec ID                                 : S_HDMV/PGS
  417. Codec ID/Info                            : Picture based subtitle format used on BDs/HD-DVDs
  418. Duration                                 : 1 h 25 min
  419. Bit rate                                 : 38.6 kb/s
  420. Count of elements                        : 2195
  421. Stream size                              : 23.7 MiB (0%)
  422. Title                                    : Polish-PGS
  423. Language                                 : Polish
  424. Default                                  : No
  425. Forced                                   : No

  426. Text #16
  427. ID                                       : 27
  428. Format                                   : PGS
  429. Muxing mode                              : zlib
  430. Codec ID                                 : S_HDMV/PGS
  431. Codec ID/Info                            : Picture based subtitle format used on BDs/HD-DVDs
  432. Duration                                 : 1 h 25 min
  433. Bit rate                                 : 38.7 kb/s
  434. Count of elements                        : 2177
  435. Stream size                              : 23.7 MiB (0%)
  436. Title                                    : Portuguese-PGS
  437. Language                                 : Portuguese
  438. Default                                  : No
  439. Forced                                   : No

  440. Text #17
  441. ID                                       : 28
  442. Format                                   : PGS
  443. Muxing mode                              : zlib
  444. Codec ID                                 : S_HDMV/PGS
  445. Codec ID/Info                            : Picture based subtitle format used on BDs/HD-DVDs
  446. Duration                                 : 1 h 25 min
  447. Bit rate                                 : 36.8 kb/s
  448. Count of elements                        : 2181
  449. Stream size                              : 22.6 MiB (0%)
  450. Title                                    : Swedish-PGS
  451. Language                                 : Swedish
  452. Default                                  : No
  453. Forced                                   : No

  454. Text #18
  455. ID                                       : 29
  456. Format                                   : PGS
  457. Muxing mode                              : zlib
  458. Codec ID                                 : S_HDMV/PGS
  459. Codec ID/Info                            : Picture based subtitle format used on BDs/HD-DVDs
  460. Duration                                 : 1 h 25 min
  461. Bit rate                                 : 22.1 kb/s
  462. Count of elements                        : 2205
  463. Stream size                              : 13.5 MiB (0%)
  464. Title                                    : Thai-PGS
  465. Language                                 : Thai
  466. Default                                  : No
  467. Forced                                   : No

  468. Text #19
  469. ID                                       : 30
  470. Format                                   : PGS
  471. Muxing mode                              : zlib
  472. Codec ID                                 : S_HDMV/PGS
  473. Codec ID/Info                            : Picture based subtitle format used on BDs/HD-DVDs
  474. Duration                                 : 1 h 25 min
  475. Bit rate                                 : 41.5 kb/s
  476. Count of elements                        : 2207
  477. Stream size                              : 25.4 MiB (0%)
  478. Title                                    : Turkish-PGS
  479. Language                                 : Turkish
  480. Default                                  : No
  481. Forced                                   : No

  482. Text #20
  483. ID                                       : 31
  484. Format                                   : PGS
  485. Muxing mode                              : zlib
  486. Codec ID                                 : S_HDMV/PGS
  487. Codec ID/Info                            : Picture based subtitle format used on BDs/HD-DVDs
  488. Duration                                 : 1 h 25 min
  489. Bit rate                                 : 26.2 kb/s
  490. Count of elements                        : 2553
  491. Stream size                              : 16.1 MiB (0%)
  492. Title                                    : Chinese-PGS
  493. Language                                 : Chinese
  494. Default                                  : No
  495. Forced                                   : No

  496. Text #21
  497. ID                                       : 32
  498. Format                                   : PGS
  499. Muxing mode                              : zlib
  500. Codec ID                                 : S_HDMV/PGS
  501. Codec ID/Info                            : Picture based subtitle format used on BDs/HD-DVDs
  502. Duration                                 : 50 min 54 s
  503. Bit rate                                 : 57 b/s
  504. Count of elements                        : 6
  505. Stream size                              : 21.4 KiB (0%)
  506. Title                                    : Japanase-FORCED_PGS
  507. Language                                 : Japanese
  508. Default                                  : No
  509. Forced                                   : No

  510. Text #22
  511. ID                                       : 33
  512. Format                                   : PGS
  513. Muxing mode                              : zlib
  514. Codec ID                                 : S_HDMV/PGS
  515. Codec ID/Info                            : Picture based subtitle format used on BDs/HD-DVDs
  516. Duration                                 : 58 min 22 s
  517. Bit rate                                 : 145 b/s
  518. Count of elements                        : 12
  519. Stream size                              : 62.1 KiB (0%)
  520. Title                                    : French-FORCED-PGS
  521. Language                                 : French
  522. Default                                  : No
  523. Forced                                   : No

  524. Text #23
  525. ID                                       : 34
  526. Format                                   : PGS
  527. Muxing mode                              : zlib
  528. Codec ID                                 : S_HDMV/PGS
  529. Codec ID/Info                            : Picture based subtitle format used on BDs/HD-DVDs
  530. Duration                                 : 58 min 22 s
  531. Bit rate                                 : 73 b/s
  532. Count of elements                        : 8
  533. Stream size                              : 31.4 KiB (0%)
  534. Title                                    : Italian-FORCED-PGS
  535. Language                                 : Italian
  536. Default                                  : No
  537. Forced                                   : No

  538. Text #24
  539. ID                                       : 35
  540. Format                                   : PGS
  541. Muxing mode                              : zlib
  542. Codec ID                                 : S_HDMV/PGS
  543. Codec ID/Info                            : Picture based subtitle format used on BDs/HD-DVDs
  544. Duration                                 : 58 min 22 s
  545. Bit rate                                 : 100 b/s
  546. Count of elements                        : 10
  547. Stream size                              : 43.0 KiB (0%)
  548. Title                                    : German-FORCED-PGS
  549. Language                                 : German
  550. Default                                  : No
  551. Forced                                   : No

  552. Text #25
  553. ID                                       : 36
  554. Format                                   : PGS
  555. Muxing mode                              : zlib
  556. Codec ID                                 : S_HDMV/PGS
  557. Codec ID/Info                            : Picture based subtitle format used on BDs/HD-DVDs
  558. Duration                                 : 58 min 22 s
  559. Bit rate                                 : 109 b/s
  560. Count of elements                        : 10
  561. Stream size                              : 47.0 KiB (0%)
  562. Title                                    : Spanish-FORCED-PGS
  563. Language                                 : Spanish
  564. Default                                  : No
  565. Forced                                   : No

  566. Text #26
  567. ID                                       : 37
  568. Format                                   : PGS
  569. Muxing mode                              : zlib
  570. Codec ID                                 : S_HDMV/PGS
  571. Codec ID/Info                            : Picture based subtitle format used on BDs/HD-DVDs
  572. Duration                                 : 7 min 32 s
  573. Bit rate                                 : 432 b/s
  574. Count of elements                        : 4
  575. Stream size                              : 23.9 KiB (0%)
  576. Title                                    : Portuguese-FORCED-PGS
  577. Language                                 : Portuguese
  578. Default                                  : No
  579. Forced                                   : No

  580. Text #27
  581. ID                                       : 38
  582. Format                                   : PGS
  583. Muxing mode                              : zlib
  584. Codec ID                                 : S_HDMV/PGS
  585. Codec ID/Info                            : Picture based subtitle format used on BDs/HD-DVDs
  586. Duration                                 : 50 min 52 s
  587. Bit rate                                 : 70 b/s
  588. Count of elements                        : 6
  589. Stream size                              : 26.2 KiB (0%)
  590. Title                                    : Spanish-FORCED-PGS
  591. Language                                 : Spanish
  592. Default                                  : No
  593. Forced                                   : No

  594. Menu
  595. 00:00:00.000                             : en:Chapter 01
  596. 00:13:41.445                             : en:Chapter 02
  597. 00:18:46.208                             : en:Chapter 03
  598. 00:20:10.918                             : en:Chapter 04
  599. 00:22:29.848                             : en:Chapter 05
  600. 00:26:34.050                             : en:Chapter 06
  601. 00:32:59.394                             : en:Chapter 07
  602. 00:38:16.085                             : en:Chapter 08
  603. 00:41:59.058                             : en:Chapter 09
  604. 00:45:52.583                             : en:Chapter 10
  605. 00:49:24.878                             : en:Chapter 11
  606. 00:53:10.729                             : en:Chapter 12
  607. 00:57:07.757                             : en:Chapter 13
  608. 01:11:07.846                             : en:Chapter 14
  609. 01:16:03.725                             : en:Chapter 15
  610. 01:20:40.460                             : en:Chapter 16
  611. 01:26:22.010                             : en:Chapter 17
复制代码

复制代码

鬼话王/王牌大骗子 Liar.Liar.1997.1080p.BluRay.REMUX.VC-1.DTS-HD.MA.5.1-FGT 16.11GB-2.png 鬼话王/王牌大骗子 Liar.Liar.1997.1080p.BluRay.REMUX.VC-1.DTS-HD.MA.5.1-FGT 16.11GB-3.png 鬼话王/王牌大骗子 Liar.Liar.1997.1080p.BluRay.REMUX.VC-1.DTS-HD.MA.5.1-FGT 16.11GB-4.png






回复

使用道具 举报

蓝光币
1
发表于 2018-12-29 13:41:10 | 显示全部楼层
没蓝光币了。
回复 支持 反对

使用道具 举报

蓝光币
12
发表于 2020-1-18 10:17:18 | 显示全部楼层
楼主发贴辛苦了,谢谢楼主分享!我觉得蓝光电影网是注册对了!
回复 支持 反对

使用道具 举报

懒得打字嘛,点击右侧快捷回复 【右侧内容,后台自定义】
您需要登录后才可以回帖 登录 | 立即加入

本版积分规则

Archiver|小黑屋| 蓝光电影网 |网站地图

Copyright © 2021 Comsenz Inc. Powered by 蓝光电影网

蓝光电影网

本站内容由用户自主分享和转载自互联网,转载目的在于传递更多信息,并不代表本网赞同其观点和对其真实性负责。

如有侵权、违反国家法律政策行为,请联系我们,我们会第一时间及时清除和处理!

举报反馈邮箱:[email protected]

快速回复 返回顶部 返回列表