找回密码

蓝光电影网

查看: 764|回复: 2

[剧情] 克莱默夫妇/克拉玛对克拉玛 Kramer.vs.Kramer.1979.1080p.BluRay.REMUX.AVC.TrueHD.5.1-FGT 24.55GB

[复制链接]
蓝光币
623
发表于 2018-9-4 09:55:35 | 显示全部楼层 |阅读模式


◎译  名 克莱默佳耦/克拉玛对克拉玛(台)/克蓝玛对克蓝玛(港)
◎片  名 Kramer vs. Kramer
◎年  代 1979
◎产  地 美国
◎类  别 剧情/家庭
◎语  言 英语
◎上映日期 1979-12-19(美国)
◎豆瓣评分 8.5/10 from 41,640 users
◎豆瓣链接 https://movie.douban.com/subject/1300685/
◎片  长 105分钟
◎导  演 罗伯特·本顿 Robert Benton
◎主  演 达斯汀·霍夫曼 Dustin Hoffman
      梅丽尔·斯特里普 Meryl Streep
      简·亚历山大 Jane Alexander
      贾斯汀·亨利 Justin Henry
      霍华德·达夫 Howard Duff
      乔治·科 George Coe
      乔贝兹·威廉姆斯 JoBeth Williams
      比尔·穆尔 Bill Moor
      豪兰·张伯伦 Howland Chamberlain
      杰克·拉梅奇 Jack Ramage
      杰斯·奥苏纳 Jess Osuna
      尼古拉斯·霍曼 Nicholas Hormann
      埃朗·帕克 Ellen Parker
      谢尔比·布拉默 Shelby Brammer
      卡萝尔·纳德尔 Carol Nadell
      唐纳德·甘特里 Donald Gantry
      朱迪丝·考尔德 Judith Calder
      彼得·洛兹 Peter Lownds
      凯瑟琳·凯勒 Kathleen Keller
      丹·蒂拉 Dan Tyra
      彼得拉·金 Petra King
      梅利莎·莫雷尔 Melissa Morell

◎简  介

  克莱默佳耦像普通的美国佳耦一样,克莱默师长(达斯汀?霍夫曼 Dustin Hoffman 饰)在外工作挣钱,克莱默夫人(梅丽尔?斯特里普 Meryl Streep 饰)则在家顾问顾问6岁的儿子比利(贾斯汀?亨利 Justin Henry 饰)。由于克莱默师长忙于工作疏忽了家庭,克莱默夫人某天愤然出走,留下了父子两。
  克莱默师长现在一方面要忙于工作,一方面又要照顾比利,生活一时堕入麻烦中。克莱默师长不善家务,在顾问比利时洋相百出:第一次为比利煎西多士、进程非常可骇;比利不吃饭要吃雪糕,克莱默师长想阻止却不懂相同……
  幸亏在女邻人的帮助下,克莱默师长逐步顺应了单身父亲的生活。父子两越来越密切,相互依靠。
  这时,克莱默夫人返来了,她已经是纽约一位出色的设想师了。她返来要拿回比利的抚养权……

◎获奖情况

  第52届奥斯卡金像奖  (1980)
  最好影片 斯坦利·R·贾菲
  最好导演 罗伯特·本顿
  最好男配角 达斯汀·霍夫曼
  最好男配角(提名) 贾斯汀·亨利
  最好女配角 梅丽尔·斯特里普
  最好女配角(提名) 简·亚历山大
  最好改编剧本 罗伯特·本顿
  最好摄影(提名) 内斯托尔·阿尔门德罗斯
  最好剪辑(提名) 杰拉德·B·格林伯格

  第5届报知映画赏  (1980)
  外洋作品奖 罗伯特·本顿

  1. Video
  2. ID                                       : 1
  3. Format                                   : AVC
  4. Format/Info                              : Advanced Video Codec
  5. Format profile                           : [url=/cdn-cgi/l/email-protection][email protected][/url]
  6. Format settings                          : CABAC / 2 Ref Frames
  7. Format settings, CABAC                   : Yes
  8. Format settings, ReFrames                : 2 frames
  9. Codec ID                                 : V_MPEG4/ISO/AVC
  10. Duration                                 : 1 h 44 min
  11. Bit rate mode                            : Variable
  12. Bit rate                                 : 27.7 Mb/s
  13. Width                                    : 1 920 pixels
  14. Height                                   : 1 080 pixels
  15. Display aspect ratio                     : 16:9
  16. Frame rate mode                          : Constant
  17. Frame rate                               : 23.976 (24000/1001) FPS
  18. Color space                              : YUV
  19. Chroma subsampling                       : 4:2:0
  20. Bit depth                                : 8 bits
  21. Scan type                                : Progressive
  22. Bits/(Pixel*Frame)                       : 0.558
  23. Stream size                              : 20.3 GiB (83%)
  24. Title                                    : Kramer.vs.Kramer.1979.1080p.BluRay.REMUX.AVC.TrueHD.5.1-FGT
  25. Language                                 : English
  26. Default                                  : No
  27. Forced                                   : No

  28. Audio #1
  29. ID                                       : 2
  30. Format                                   : TrueHD
  31. Codec ID                                 : A_TRUEHD
  32. Duration                                 : 1 h 44 min
  33. Bit rate mode                            : Variable
  34. Bit rate                                 : 1 243 kb/s
  35. Maximum bit rate                         : 1 878 kb/s
  36. Channel(s)                               : 6 channels
  37. Channel positions                        : Front: L C R, Side: L R, LFE
  38. Sampling rate                            : 48.0 kHz
  39. Frame rate                               : 1 200.000 FPS (40 SPF)
  40. Compression mode                         : Lossless
  41. Stream size                              : 932 MiB (4%)
  42. Title                                    : Kramer.vs.Kramer.1979.1080p.BluRay.REMUX.AVC.TrueHD.5.1-FGT
  43. Language                                 : English
  44. Default                                  : Yes
  45. Forced                                   : No

  46. Audio #2
  47. ID                                       : 3
  48. Format                                   : AC-3
  49. Format/Info                              : Audio Coding 3
  50. Codec ID                                 : A_AC3
  51. Duration                                 : 1 h 44 min
  52. Bit rate mode                            : Constant
  53. Bit rate                                 : 640 kb/s
  54. Channel(s)                               : 6 channels
  55. Channel positions                        : Front: L C R, Side: L R, LFE
  56. Sampling rate                            : 48.0 kHz
  57. Frame rate                               : 31.250 FPS (1536 SPF)
  58. Bit depth                                : 16 bits
  59. Compression mode                         : Lossy
  60. Stream size                              : 480 MiB (2%)
  61. Title                                    : Kramer.vs.Kramer.1979.1080p.BluRay.REMUX.AVC.TrueHD.5.1-FGT
  62. Language                                 : English
  63. Service kind                             : Complete Main
  64. Default                                  : No
  65. Forced                                   : No

  66. Audio #3
  67. ID                                       : 4
  68. Format                                   : TrueHD
  69. Codec ID                                 : A_TRUEHD
  70. Duration                                 : 1 h 44 min
  71. Bit rate mode                            : Variable
  72. Bit rate                                 : 1 239 kb/s
  73. Maximum bit rate                         : 1 782 kb/s
  74. Channel(s)                               : 6 channels
  75. Channel positions                        : Front: L C R, Side: L R, LFE
  76. Sampling rate                            : 48.0 kHz
  77. Frame rate                               : 1 200.000 FPS (40 SPF)
  78. Compression mode                         : Lossless
  79. Stream size                              : 929 MiB (4%)
  80. Title                                    : Kramer.vs.Kramer.1979.1080p.BluRay.REMUX.AVC.TrueHD.5.1-FGT
  81. Language                                 : German
  82. Default                                  : No
  83. Forced                                   : No

  84. Audio #4
  85. ID                                       : 5
  86. Format                                   : AC-3
  87. Format/Info                              : Audio Coding 3
  88. Codec ID                                 : A_AC3
  89. Duration                                 : 1 h 44 min
  90. Bit rate mode                            : Constant
  91. Bit rate                                 : 640 kb/s
  92. Channel(s)                               : 6 channels
  93. Channel positions                        : Front: L C R, Side: L R, LFE
  94. Sampling rate                            : 48.0 kHz
  95. Frame rate                               : 31.250 FPS (1536 SPF)
  96. Bit depth                                : 16 bits
  97. Compression mode                         : Lossy
  98. Stream size                              : 480 MiB (2%)
  99. Title                                    : Kramer.vs.Kramer.1979.1080p.BluRay.REMUX.AVC.TrueHD.5.1-FGT
  100. Language                                 : German
  101. Service kind                             : Complete Main
  102. Default                                  : No
  103. Forced                                   : No

  104. Audio #5
  105. ID                                       : 6
  106. Format                                   : TrueHD
  107. Codec ID                                 : A_TRUEHD
  108. Duration                                 : 1 h 44 min
  109. Bit rate mode                            : Variable
  110. Bit rate                                 : 1 138 kb/s
  111. Maximum bit rate                         : 1 575 kb/s
  112. Channel(s)                               : 6 channels
  113. Channel positions                        : Front: L C R, Side: L R, LFE
  114. Sampling rate                            : 48.0 kHz
  115. Frame rate                               : 1 200.000 FPS (40 SPF)
  116. Compression mode                         : Lossless
  117. Stream size                              : 853 MiB (3%)
  118. Title                                    : Kramer.vs.Kramer.1979.1080p.BluRay.REMUX.AVC.TrueHD.5.1-FGT
  119. Language                                 : Spanish
  120. Default                                  : No
  121. Forced                                   : No

  122. Audio #6
  123. ID                                       : 7
  124. Format                                   : AC-3
  125. Format/Info                              : Audio Coding 3
  126. Codec ID                                 : A_AC3
  127. Duration                                 : 1 h 44 min
  128. Bit rate mode                            : Constant
  129. Bit rate                                 : 640 kb/s
  130. Channel(s)                               : 6 channels
  131. Channel positions                        : Front: L C R, Side: L R, LFE
  132. Sampling rate                            : 48.0 kHz
  133. Frame rate                               : 31.250 FPS (1536 SPF)
  134. Bit depth                                : 16 bits
  135. Compression mode                         : Lossy
  136. Stream size                              : 480 MiB (2%)
  137. Title                                    : Kramer.vs.Kramer.1979.1080p.BluRay.REMUX.AVC.TrueHD.5.1-FGT
  138. Language                                 : Spanish
  139. Service kind                             : Complete Main
  140. Default                                  : No
  141. Forced                                   : No

  142. Text #1
  143. ID                                       : 8
  144. Format                                   : PGS
  145. Muxing mode                              : zlib
  146. Codec ID                                 : S_HDMV/PGS
  147. Codec ID/Info                            : Picture based subtitle format used on BDs/HD-DVDs
  148. Duration                                 : 1 h 40 min
  149. Bit rate                                 : 38.1 kb/s
  150. Count of elements                        : 2714
  151. Stream size                              : 27.4 MiB (0%)
  152. Title                                    : English-PGS
  153. Language                                 : English
  154. Default                                  : Yes
  155. Forced                                   : No

  156. Text #2
  157. ID                                       : 9
  158. Format                                   : PGS
  159. Muxing mode                              : zlib
  160. Codec ID                                 : S_HDMV/PGS
  161. Codec ID/Info                            : Picture based subtitle format used on BDs/HD-DVDs
  162. Duration                                 : 1 h 40 min
  163. Bit rate                                 : 43.6 kb/s
  164. Count of elements                        : 2720
  165. Stream size                              : 31.4 MiB (0%)
  166. Title                                    : German-PGS
  167. Language                                 : German
  168. Default                                  : No
  169. Forced                                   : No

  170. Text #3
  171. ID                                       : 10
  172. Format                                   : PGS
  173. Muxing mode                              : zlib
  174. Codec ID                                 : S_HDMV/PGS
  175. Codec ID/Info                            : Picture based subtitle format used on BDs/HD-DVDs
  176. Duration                                 : 32 min 50 s
  177. Bit rate                                 : 152 b/s
  178. Count of elements                        : 4
  179. Stream size                              : 36.7 KiB (0%)
  180. Title                                    : German-FORCED-PGS
  181. Language                                 : German
  182. Default                                  : No
  183. Forced                                   : No

  184. Text #4
  185. ID                                       : 11
  186. Format                                   : PGS
  187. Muxing mode                              : zlib
  188. Codec ID                                 : S_HDMV/PGS
  189. Codec ID/Info                            : Picture based subtitle format used on BDs/HD-DVDs
  190. Duration                                 : 1 h 40 min
  191. Bit rate                                 : 30.4 kb/s
  192. Count of elements                        : 2704
  193. Stream size                              : 21.9 MiB (0%)
  194. Title                                    : Spanish-PGS
  195. Language                                 : Spanish
  196. Default                                  : No
  197. Forced                                   : No

  198. Text #5
  199. ID                                       : 12
  200. Format                                   : PGS
  201. Muxing mode                              : zlib
  202. Codec ID                                 : S_HDMV/PGS
  203. Codec ID/Info                            : Picture based subtitle format used on BDs/HD-DVDs
  204. Duration                                 : 32 min 50 s
  205. Bit rate                                 : 222 b/s
  206. Count of elements                        : 6
  207. Stream size                              : 53.5 KiB (0%)
  208. Title                                    : Spanish-FORCED-PGS
  209. Language                                 : Spanish
  210. Default                                  : No
  211. Forced                                   : No

  212. Text #6
  213. ID                                       : 13
  214. Format                                   : PGS
  215. Muxing mode                              : zlib
  216. Codec ID                                 : S_HDMV/PGS
  217. Codec ID/Info                            : Picture based subtitle format used on BDs/HD-DVDs
  218. Duration                                 : 1 h 41 min
  219. Bit rate                                 : 40.2 kb/s
  220. Count of elements                        : 2718
  221. Stream size                              : 29.3 MiB (0%)
  222. Title                                    : Portuguese-PGS
  223. Language                                 : Portuguese
  224. Default                                  : No
  225. Forced                                   : No

  226. Text #7
  227. ID                                       : 14
  228. Format                                   : PGS
  229. Muxing mode                              : zlib
  230. Codec ID                                 : S_HDMV/PGS
  231. Codec ID/Info                            : Picture based subtitle format used on BDs/HD-DVDs
  232. Duration                                 : 1 h 40 min
  233. Bit rate                                 : 33.2 kb/s
  234. Count of elements                        : 2698
  235. Stream size                              : 23.9 MiB (0%)
  236. Title                                    : TUrkish-PGS
  237. Language                                 : Turkish
  238. Default                                  : No
  239. Forced                                   : No

  240. Menu
  241. 00:00:00.000                             : en:Chapter 01
  242. 00:04:48.413                             : en:Chapter 02
  243. 00:11:15.216                             : en:Chapter 03
  244. 00:20:15.797                             : en:Chapter 04
  245. 00:26:48.481                             : en:Chapter 05
  246. 00:35:56.279                             : en:Chapter 06
  247. 00:43:01.161                             : en:Chapter 07
  248. 00:50:20.642                             : en:Chapter 08
  249. 00:55:48.636                             : en:Chapter 09
  250. 01:03:42.902                             : en:Chapter 10
  251. 01:11:33.414                             : en:Chapter 11
  252. 01:19:18.170                             : en:Chapter 12
  253. 01:24:44.579                             : en:Chapter 13
  254. 01:32:23.829                             : en:Chapter 14
  255. 01:38:19.685                             : en:Chapter 15
  256. 01:40:40.409                             : en:Chapter 16
复制代码

复制代码








回复

使用道具 举报

懒得打字嘛,点击右侧快捷回复 【右侧内容,后台自定义】
您需要登录后才可以回帖 登录 | 立即加入

本版积分规则

Archiver|小黑屋| 蓝光电影网 |网站地图

Copyright © 2021 Comsenz Inc. Powered by 蓝光电影网

蓝光电影网

本站内容由用户自主分享和转载自互联网,转载目的在于传递更多信息,并不代表本网赞同其观点和对其真实性负责。

如有侵权、违反国家法律政策行为,请联系我们,我们会第一时间及时清除和处理!

举报反馈邮箱:[email protected]

快速回复 返回顶部 返回列表