找回密码

蓝光电影网

查看: 711|回复: 2

[动作] 一人行动/点指贼贼 A.Force.of.One.1979.1080p.BluRay.REMUX.AVC.DTS-HD.MA.5.1-FGT 16.57GB

[复制链接]
蓝光币
733
发表于 2018-9-4 09:56:13 | 显示全部楼层 |阅读模式

一人行动/点指贼贼 A.Force.of.One.1979.1080p.BluRay.REMUX.AVC.DTS-HD.MA.5.1-FGT 16.57GB-1.jpg
◎译  名 一人行动/点指贼贼
◎片  名 A Force of One
◎年  代 1979
◎产  地 美国
◎类  别 行动/犯罪/剧情/惊悚
◎语  言 英语
◎上映日期 1979-11-15
◎豆瓣评分 /10 from 0 users
◎豆瓣链接 https://movie.douban.com/subject/1297334/
◎片  长 90 分钟
◎导  演 Paul Aaron
◎主  演 詹妮弗·欧内尔 Jennifer O'Neill
      查克·诺瑞斯 Chuck Norris
      克鲁·古拉格 Clu Gulager

◎简  介

  A team of undercover narcotics agents is conducting an investigation when things mysteriously begin to go haywire. One by one, the squad is eliminated by an assassin. To help discover the identity of the karate killer, the police enlist the aid of karate champion Matt Logan.

  1. Video
  2. ID                                       : 1
  3. Format                                   : AVC
  4. Format/Info                              : Advanced Video Codec
  5. Format profile                           : [url=/cdn-cgi/l/email-protection][email protected][/url]
  6. Format settings                          : CABAC / 4 Ref Frames
  7. Format settings, CABAC                   : Yes
  8. Format settings, ReFrames                : 4 frames
  9. Codec ID                                 : V_MPEG4/ISO/AVC
  10. Duration                                 : 1 h 31 min
  11. Bit rate mode                            : Variable
  12. Bit rate                                 : 19.0 Mb/s
  13. Maximum bit rate                         : 34.0 Mb/s
  14. Width                                    : 1 920 pixels
  15. Height                                   : 1 080 pixels
  16. Display aspect ratio                     : 16:9
  17. Frame rate mode                          : Constant
  18. Frame rate                               : 23.976 (24000/1001) FPS
  19. Standard                                 : NTSC
  20. Color space                              : YUV
  21. Chroma subsampling                       : 4:2:0
  22. Bit depth                                : 8 bits
  23. Scan type                                : Progressive
  24. Bits/(Pixel*Frame)                       : 0.382
  25. Stream size                              : 12.1 GiB (73%)
  26. Title                                    : A.Force.of.One.1979.1080p.BluRay.REMUX.AVC.DTS-HD.MA.5.1-FGT
  27. Language                                 : English
  28. Default                                  : No
  29. Forced                                   : No
  30. Color range                              : Limited
  31. Color primaries                          : BT.709
  32. Transfer characteristics                 : BT.709
  33. Matrix coefficients                      : BT.709

  34. Audio #1
  35. ID                                       : 2
  36. Format                                   : DTS
  37. Format/Info                              : Digital Theater Systems
  38. Format profile                           : MA / Core
  39. Codec ID                                 : A_DTS
  40. Duration                                 : 1 h 30 min
  41. Bit rate mode                            : Variable / Constant
  42. Bit rate                                 : 2 325 kb/s / 1 509 kb/s
  43. Channel(s)                               : 6 channels
  44. Channel positions                        : Front: L C R, Side: L R, LFE
  45. Sampling rate                            : 48.0 kHz
  46. Frame rate                               : 93.750 FPS (512 SPF)
  47. Bit depth                                : 16 bits
  48. Compression mode                         : Lossless / Lossy
  49. Stream size                              : 1.48 GiB (9%)
  50. Title                                    : A.Force.of.One.1979.1080p.BluRay.REMUX.AVC.DTS-HD.MA.5.1-FGT
  51. Language                                 : English
  52. Default                                  : Yes
  53. Forced                                   : No

  54. Audio #2
  55. ID                                       : 3
  56. Format                                   : DTS
  57. Format/Info                              : Digital Theater Systems
  58. Codec ID                                 : A_DTS
  59. Duration                                 : 1 h 30 min
  60. Bit rate mode                            : Constant
  61. Bit rate                                 : 1 509 kb/s
  62. Channel(s)                               : 6 channels
  63. Channel positions                        : Front: L C R, Side: L R, LFE
  64. Sampling rate                            : 48.0 kHz
  65. Frame rate                               : 93.750 FPS (512 SPF)
  66. Bit depth                                : 16 bits
  67. Compression mode                         : Lossy
  68. Stream size                              : 982 MiB (6%)
  69. Title                                    : A.Force.of.One.1979.1080p.BluRay.REMUX.AVC.DTS-HD.MA.5.1-FGT
  70. Language                                 : English
  71. Default                                  : No
  72. Forced                                   : No

  73. Audio #3
  74. ID                                       : 4
  75. Format                                   : DTS
  76. Format/Info                              : Digital Theater Systems
  77. Format profile                           : MA / Core
  78. Codec ID                                 : A_DTS
  79. Duration                                 : 1 h 30 min
  80. Bit rate mode                            : Variable / Constant
  81. Bit rate                                 : 1 721 kb/s / 1 509 kb/s
  82. Channel(s)                               : 2 channels
  83. Channel positions                        : Front: L R
  84. Sampling rate                            : 48.0 kHz
  85. Frame rate                               : 93.750 FPS (512 SPF)
  86. Bit depth                                : 16 bits
  87. Compression mode                         : Lossless / Lossy
  88. Stream size                              : 1.09 GiB (7%)
  89. Title                                    : A.Force.of.One.1979.1080p.BluRay.REMUX.AVC.DTS-HD.MA.5.1-FGT
  90. Language                                 : English
  91. Default                                  : No
  92. Forced                                   : No

  93. Audio #4
  94. ID                                       : 5
  95. Format                                   : DTS
  96. Format/Info                              : Digital Theater Systems
  97. Codec ID                                 : A_DTS
  98. Duration                                 : 1 h 30 min
  99. Bit rate mode                            : Constant
  100. Bit rate                                 : 1 509 kb/s
  101. Channel(s)                               : 2 channels
  102. Channel positions                        : Front: L R
  103. Sampling rate                            : 48.0 kHz
  104. Frame rate                               : 93.750 FPS (512 SPF)
  105. Bit depth                                : 16 bits
  106. Compression mode                         : Lossy
  107. Stream size                              : 982 MiB (6%)
  108. Title                                    : A.Force.of.One.1979.1080p.BluRay.REMUX.AVC.DTS-HD.MA.5.1-FGT
  109. Language                                 : English
  110. Default                                  : No
  111. Forced                                   : No

  112. Menu
  113. 00:00:00.000                             : en:Chapter 01
  114. 00:09:02.959                             : en:Chapter 02
  115. 00:17:44.688                             : en:Chapter 03
  116. 00:23:54.182                             : en:Chapter 04
  117. 00:33:25.420                             : en:Chapter 05
  118. 00:40:14.286                             : en:Chapter 06
  119. 00:49:01.021                             : en:Chapter 07
  120. 00:56:06.154                             : en:Chapter 08
  121. 01:04:28.322                             : en:Chapter 09
  122. 01:13:18.435                             : en:Chapter 10
  123. 01:22:40.372                             : en:Chapter 11
  124. 01:28:50.575                             : en:Chapter 12
复制代码

复制代码

一人行动/点指贼贼 A.Force.of.One.1979.1080p.BluRay.REMUX.AVC.DTS-HD.MA.5.1-FGT 16.57GB-2.png 一人行动/点指贼贼 A.Force.of.One.1979.1080p.BluRay.REMUX.AVC.DTS-HD.MA.5.1-FGT 16.57GB-3.png 一人行动/点指贼贼 A.Force.of.One.1979.1080p.BluRay.REMUX.AVC.DTS-HD.MA.5.1-FGT 16.57GB-4.png




回复

使用道具 举报

懒得打字嘛,点击右侧快捷回复 【右侧内容,后台自定义】
您需要登录后才可以回帖 登录 | 立即加入

本版积分规则

Archiver|小黑屋| 蓝光电影网 |网站地图

Copyright © 2021 Comsenz Inc. Powered by 蓝光电影网

蓝光电影网

本站内容由用户自主分享和转载自互联网,转载目的在于传递更多信息,并不代表本网赞同其观点和对其真实性负责。

如有侵权、违反国家法律政策行为,请联系我们,我们会第一时间及时清除和处理!

举报反馈邮箱:[email protected]

快速回复 返回顶部 返回列表