找回密码

蓝光电影网

查看: 3089|回复: 1

[喜剧] 绝地战警/坏小子 Bad.Boys.1995.REMASTERED.1080p.BluRay.x264.DTS-SWTYBLZ 12.76GB

[复制链接]
蓝光币
623
发表于 2018-9-4 13:26:54 | 显示全部楼层 |阅读模式

绝地战警/坏小子 Bad.Boys.1995.REMASTERED.1080p.BluRay.x264.DTS-SWTYBLZ 12.76GB-1.jpg
◎译  名 绝地战警/坏小子/重案梦幻组
◎片  名 Bad Boys
◎年  代 1995
◎产  地 美国
◎类  别 笑剧/行动/犯罪
◎语  言 英语
◎上映日期 1995-04-07(美国)/1995-12(中国大陆)
◎豆瓣评分 7.4/10 from 25,001 users
◎豆瓣链接 https://movie.douban.com/subject/1296102/
◎片  长 119分钟
◎导  演 迈克尔·贝 Michael Bay
◎主  演 马丁·劳伦斯 Martin Lawrence
      威尔·史姑娘 Will Smith
      蒂娅·里欧妮 Téa Leoni
      切基·卡尤 Tchéky Karyo
      特里萨·兰德尔 Theresa Randle
      乔·潘托里亚诺 Joe Pantoliano
      丽莎·博伊尔 Lisa Boyle
      Michael Taliferro
      马克·麦考利 Marc Macaulay
      弗兰克·约翰·休斯 Frank John Hughes
      安娜·莱文 Anna Levine
      萨姆·阿耶尔斯 Sam Ayers
      玛格·海根柏格 Marg Helgenberger
      内斯特·塞拉诺 Nestor Serrano
      胡里奥·奥斯卡·门乔索 Julio Oscar Mechoso
      迈克尔·因佩里奥利 Michael Imperioli
      Saverio Guerra
      肖恩·托布  Shaun Toub
      Marty McSorley
      凯文·考利甘 Kevin Corrigan
      约翰·萨利 John Salley

◎简  介

  迈阿密警局的一对“黄金”同伴,顾家爱妻的好汉子宾纳(马丁?劳伦斯)和穿着鲜明风骚倜傥的富家子弟劳瑞(威尔?史姑娘),受命清查一桩代价上亿美圆的毒品证物失窃案,假如不能实时完成使命,他俩就得卷铺盖走人。
  在两人疲于奔命之际,该案件唯一的性感女证人打电话到警局宣称她愿意指认胁从,但条件是劳瑞必须出头庇护她,否则一切免谈,此时劳瑞恰好不在警局,宾纳为套取线索,情急智生滥竽充数。厥后,为了不落空女证人的信赖,两人只得将对换身份一事停止到底,宾纳在枪林弹雨及汽车追逐中贴身庇护女证人,劳瑞则来到他家中陪伴其妻。

  1. Video
  2. ID                                       : 1
  3. Format                                   : AVC
  4. Format/Info                              : Advanced Video Codec
  5. Format profile                           : [url=/cdn-cgi/l/email-protection][email protected][/url]
  6. Format settings                          : CABAC / 4 Ref Frames
  7. Format settings, CABAC                   : Yes
  8. Format settings, ReFrames                : 4 frames
  9. Codec ID                                 : V_MPEG4/ISO/AVC
  10. Duration                                 : 1 h 58 min
  11. Bit rate                                 : 13.9 Mb/s
  12. Width                                    : 1 920 pixels
  13. Height                                   : 1 038 pixels
  14. Display aspect ratio                     : 1.85:1
  15. Frame rate mode                          : Constant
  16. Frame rate                               : 23.976 (24000/1001) FPS
  17. Color space                              : YUV
  18. Chroma subsampling                       : 4:2:0
  19. Bit depth                                : 8 bits
  20. Scan type                                : Progressive
  21. Bits/(Pixel*Frame)                       : 0.290
  22. Stream size                              : 11.5 GiB (90%)
  23. Title                                    : Bad.Boys.1995.1080p.BluRay.x264.DTS-SWTYBLZ
  24. Writing library                          : x264 core 155 r2901 7d0ff22
  25. Encoding settings                        : cabac=1 / ref=4 / deblock=1:-1:-1 / analyse=0x3:0x133 / me=umh / subme=10 / psy=1 / psy_rd=1.00:0.15 / mixed_ref=1 / me_range=48 / chroma_me=1 / trellis=2 / 8x8dct=1 / cqm=0 / deadzone=21,11 / fast_pskip=1 / chroma_qp_offset=-3 / threads=32 / lookahead_threads=5 / sliced_threads=0 / nr=0 / decimate=0 / interlaced=0 / bluray_compat=0 / constrained_intra=0 / bframes=8 / b_pyramid=2 / b_adapt=2 / b_bias=0 / direct=3 / weightb=1 / open_gop=0 / weightp=2 / keyint=250 / keyint_min=23 / scenecut=40 / intra_refresh=0 / rc_lookahead=60 / rc=crf / mbtree=1 / crf=21.0 / qcomp=0.60 / qpmin=0 / qpmax=69 / qpstep=4 / ip_ratio=1.40 / aq=1:1.00
  26. Language                                 : English
  27. Default                                  : Yes
  28. Forced                                   : No

  29. Audio
  30. ID                                       : 2
  31. Format                                   : DTS
  32. Format/Info                              : Digital Theater Systems
  33. Codec ID                                 : A_DTS
  34. Duration                                 : 1 h 58 min
  35. Bit rate mode                            : Constant
  36. Bit rate                                 : 1 509 kb/s
  37. Channel(s)                               : 6 channels
  38. Channel positions                        : Front: L C R, Side: L R, LFE
  39. Sampling rate                            : 48.0 kHz
  40. Frame rate                               : 93.750 FPS (512 SPF)
  41. Bit depth                                : 24 bits
  42. Compression mode                         : Lossy
  43. Stream size                              : 1.25 GiB (10%)
  44. Title                                    : Bad.Boys.1995.1080p.BluRay.x264.DTS-SWTYBLZ
  45. Language                                 : English
  46. Default                                  : Yes
  47. Forced                                   : No

  48. Text
  49. ID                                       : 3
  50. Format                                   : UTF-8
  51. Codec ID                                 : S_TEXT/UTF8
  52. Codec ID/Info                            : UTF-8 Plain Text
  53. Duration                                 : 1 h 54 min
  54. Bit rate                                 : 67 b/s
  55. Count of elements                        : 1659
  56. Stream size                              : 56.4 KiB (0%)
  57. Language                                 : English
  58. Default                                  : Yes
  59. Forced                                   : No

  60. Menu
  61. 00:00:00.000                             : :Chapter 1
  62. 00:05:07.473                             : :Chapter 2
  63. 00:12:01.971                             : :Chapter 3
  64. 00:17:38.098                             : :Chapter 4
  65. 00:23:33.203                             : :Chapter 5
  66. 00:31:31.764                             : :Chapter 6
  67. 00:41:09.133                             : :Chapter 7
  68. 00:47:35.310                             : :Chapter 8
  69. 00:54:37.357                             : :Chapter 9
  70. 01:04:05.675                             : :Chapter 10
  71. 01:13:49.800                             : :Chapter 11
  72. 01:20:21.483                             : :Chapter 12
  73. 01:27:58.523                             : :Chapter 13
  74. 01:34:54.271                             : :Chapter 14
  75. 01:43:09.308                             : :Chapter 15
  76. 01:50:51.353                             : :Chapter 16
复制代码

复制代码

绝地战警/坏小子 Bad.Boys.1995.REMASTERED.1080p.BluRay.x264.DTS-SWTYBLZ 12.76GB-2.png 绝地战警/坏小子 Bad.Boys.1995.REMASTERED.1080p.BluRay.x264.DTS-SWTYBLZ 12.76GB-3.png 绝地战警/坏小子 Bad.Boys.1995.REMASTERED.1080p.BluRay.x264.DTS-SWTYBLZ 12.76GB-4.png






回复

使用道具 举报

蓝光币
456
发表于 2020-4-18 16:59:09 | 显示全部楼层

这东西我收了!谢谢楼主!蓝光电影网真好!
回复 支持 反对

使用道具 举报

懒得打字嘛,点击右侧快捷回复 【右侧内容,后台自定义】
您需要登录后才可以回帖 登录 | 立即加入

本版积分规则

Archiver|小黑屋| 蓝光电影网 |网站地图

Copyright © 2021 Comsenz Inc. Powered by 蓝光电影网

蓝光电影网

本站内容由用户自主分享和转载自互联网,转载目的在于传递更多信息,并不代表本网赞同其观点和对其真实性负责。

如有侵权、违反国家法律政策行为,请联系我们,我们会第一时间及时清除和处理!

举报反馈邮箱:[email protected]

快速回复 返回顶部 返回列表