找回密码

蓝光电影网

查看: 3076|回复: 3

[剧情] 战神阿瑞斯 Ares.2016.FRENCH.1080p.BluRay.x264.DTS-AKME 11.36GB

[复制链接]
蓝光币
623
发表于 2018-9-5 09:39:00 | 显示全部楼层 |阅读模式

战神阿瑞斯 Ares.2016.FRENCH.1080p.BluRay.x264.DTS-AKME 11.36GB-1.jpg
◎译  名 战神阿瑞斯
◎片  名 Arès
◎年  代 2016
◎产  地 法国
◎类  别 剧情/科幻/惊悚
◎语  言 法语
◎豆瓣评分 6.0/10 from 918 users
◎豆瓣链接 https://movie.douban.com/subject/26710111/
◎片  长 80分钟
◎导  演 让-帕特里克·贝内斯 Jean-Patrick Benes
◎主  演 奥拉·拉佩斯 Ola Rapace
      米莎·莱斯科特 Micha Lescot
      蒂埃里·汉西斯 Thierry Hancisse
      埃莱娜·菲利埃 Hélène Fillières
      鲁斯.维嘉.费尔南德茨 Ruth Vega Fernandez
      伊娃·拉利耶 Eva Lallier
      路易斯朵-德-兰切萨 Louis-Do de Lencquesaing
      艾利娜·所罗门 élina Solomon
      伊冯·马丁 Yvon Martin
      皮埃尔·派瑞尔 Pierre Perrier
      艾米丽·加瓦·卡恩 Emilie Gavois-Kahn
      乔·普雷斯蒂亚 Jo Prestia
      戴维·米金特 David Migeot
      文森特·帕里斯 Vincent Parisi
      菲利普·帕布兰克 Philippe Paimblanc

◎简  介

  在不远的未来,天下次序发生了质的改变。充溢着数百万失业职员的法国酿成了一个赤贫的国家,人们在抵挡和妥协间追求前途,正当利用兴奋剂不择手段的肉搏角逐成为了人们感情宣泄的路子。

  1. Video
  2. ID                                       : 1
  3. Format                                   : AVC
  4. Format/Info                              : Advanced Video Codec
  5. Format profile                           : [url=/cdn-cgi/l/email-protection][email protected][/url]
  6. Format settings                          : CABAC / 4 Ref Frames
  7. Format settings, CABAC                   : Yes
  8. Format settings, ReFrames                : 4 frames
  9. Codec ID                                 : V_MPEG4/ISO/AVC
  10. Duration                                 : 1 h 20 min
  11. Bit rate                                 : 18.7 Mb/s
  12. Width                                    : 1 920 pixels
  13. Height                                   : 800 pixels
  14. Display aspect ratio                     : 2.40:1
  15. Frame rate mode                          : Constant
  16. Frame rate                               : 24.000 FPS
  17. Color space                              : YUV
  18. Chroma subsampling                       : 4:2:0
  19. Bit depth                                : 8 bits
  20. Scan type                                : Progressive
  21. Bits/(Pixel*Frame)                       : 0.508
  22. Stream size                              : 10.5 GiB (93%)
  23. Writing library                          : x264 core 148 r2728 4d5c8b0
  24. Encoding settings                        : cabac=1 / ref=4 / deblock=1:-3:-3 / analyse=0x3:0x133 / me=umh / subme=11 / psy=1 / psy_rd=1.00:0.00 / mixed_ref=1 / me_range=24 / chroma_me=1 / trellis=2 / 8x8dct=1 / cqm=0 / deadzone=21,11 / fast_pskip=0 / chroma_qp_offset=-2 / threads=6 / lookahead_threads=1 / sliced_threads=0 / nr=0 / decimate=0 / interlaced=0 / bluray_compat=0 / constrained_intra=0 / bframes=11 / b_pyramid=2 / b_adapt=2 / b_bias=0 / direct=3 / weightb=1 / open_gop=0 / weightp=2 / keyint=250 / keyint_min=24 / scenecut=40 / intra_refresh=0 / rc=crf / mbtree=0 / crf=18.0 / qcomp=0.60 / qpmin=0 / qpmax=69 / qpstep=4 / ip_ratio=1.40 / pb_ratio=1.30 / aq=3:1.10
  25. Language                                 : English
  26. Default                                  : Yes
  27. Forced                                   : No

  28. Audio
  29. ID                                       : 2
  30. Format                                   : DTS
  31. Format/Info                              : Digital Theater Systems
  32. Codec ID                                 : A_DTS
  33. Duration                                 : 1 h 20 min
  34. Bit rate mode                            : Constant
  35. Bit rate                                 : 1 510 kb/s
  36. Channel(s)                               : 6 channels
  37. Channel positions                        : Front: L C R, Side: L R, LFE
  38. Sampling rate                            : 44.1 kHz
  39. Frame rate                               : 86.133 FPS (512 SPF)
  40. Bit depth                                : 16 bits
  41. Compression mode                         : Lossy
  42. Stream size                              : 868 MiB (7%)
  43. Language                                 : French
  44. Default                                  : Yes
  45. Forced                                   : No

  46. Text
  47. ID                                       : 3
  48. Format                                   : UTF-8
  49. Codec ID                                 : S_TEXT/UTF8
  50. Codec ID/Info                            : UTF-8 Plain Text
  51. Duration                                 : 1 h 14 min
  52. Bit rate                                 : 36 b/s
  53. Count of elements                        : 605
  54. Stream size                              : 20.0 KiB (0%)
  55. Language                                 : English
  56. Default                                  : Yes
  57. Forced                                   : Yes
复制代码

复制代码

战神阿瑞斯 Ares.2016.FRENCH.1080p.BluRay.x264.DTS-AKME 11.36GB-2.png 战神阿瑞斯 Ares.2016.FRENCH.1080p.BluRay.x264.DTS-AKME 11.36GB-3.png 战神阿瑞斯 Ares.2016.FRENCH.1080p.BluRay.x264.DTS-AKME 11.36GB-4.png






回复

使用道具 举报

蓝光币
440
发表于 2018-9-5 09:59:29 | 显示全部楼层
非常精彩的电影,谢谢楼主的分享。
回复 支持 反对

使用道具 举报

蓝光币
4
发表于 2018-9-6 03:18:05 | 显示全部楼层
可惜后来被我奎爷干了:lol开玩笑
回复 支持 反对

使用道具 举报

蓝光币
262
发表于 2018-9-6 14:11:38 | 显示全部楼层
感谢楼主分享~~~
回复 支持 反对

使用道具 举报

懒得打字嘛,点击右侧快捷回复 【右侧内容,后台自定义】
您需要登录后才可以回帖 登录 | 立即加入

本版积分规则

Archiver|小黑屋| 蓝光电影网 |网站地图

Copyright © 2021 Comsenz Inc. Powered by 蓝光电影网

蓝光电影网

本站内容由用户自主分享和转载自互联网,转载目的在于传递更多信息,并不代表本网赞同其观点和对其真实性负责。

如有侵权、违反国家法律政策行为,请联系我们,我们会第一时间及时清除和处理!

举报反馈邮箱:[email protected]

快速回复 返回顶部 返回列表