找回密码

蓝光电影网

查看: 1926|回复: 2

绝地战警/坏小子 Bad.Boys.1995.2160p.BluRay.x265.10bit.SDR.DTS-HD.MA.TrueHD.7.1.Atmos-SWTYBLZ 51.30GB

[复制链接]
蓝光币
623
发表于 2018-9-5 09:42:13 | 显示全部楼层 |阅读模式


◎译  名 绝地战警/坏小子/重案梦幻组
◎片  名 Bad Boys
◎年  代 1995
◎产  地 美国
◎类  别 笑剧/行动/犯罪
◎语  言 英语
◎上映日期 1995-04-07(美国)/1995-12(中国大陆)
◎豆瓣评分 7.4/10 from 25,010 users
◎豆瓣链接 https://movie.douban.com/subject/1296102/
◎片  长 119分钟
◎导  演 迈克尔·贝 Michael Bay
◎主  演 马丁·劳伦斯 Martin Lawrence
      威尔·史姑娘 Will Smith
      蒂娅·里欧妮 Téa Leoni
      切基·卡尤 Tchéky Karyo
      特里萨·兰德尔 Theresa Randle
      乔·潘托里亚诺 Joe Pantoliano
      丽莎·博伊尔 Lisa Boyle
      Michael Taliferro
      马克·麦考利 Marc Macaulay
      弗兰克·约翰·休斯 Frank John Hughes
      安娜·莱文 Anna Levine
      萨姆·阿耶尔斯 Sam Ayers
      玛格·海根柏格 Marg Helgenberger
      内斯特·塞拉诺 Nestor Serrano
      胡里奥·奥斯卡·门乔索 Julio Oscar Mechoso
      迈克尔·因佩里奥利 Michael Imperioli
      Saverio Guerra
      肖恩·托布  Shaun Toub
      Marty McSorley
      凯文·考利甘 Kevin Corrigan
      约翰·萨利 John Salley

◎简  介

  迈阿密警局的一对“黄金”同伴,顾家爱妻的好汉子宾纳(马丁?劳伦斯)和穿着鲜明风骚倜傥的富家子弟劳瑞(威尔?史姑娘),受命清查一桩代价上亿美圆的毒品证物失窃案,假如不能实时完成使命,他俩就得卷铺盖走人。
  在两人疲于奔命之际,该案件唯一的性感女证人打电话到警局宣称她愿意指认胁从,但条件是劳瑞必须出头庇护她,否则一切免谈,此时劳瑞恰好不在警局,宾纳为套取线索,情急智生滥竽充数。厥后,为了不落空女证人的信赖,两人只得将对换身份一事停止到底,宾纳在枪林弹雨及汽车追逐中贴身庇护女证人,劳瑞则来到他家中陪伴其妻。

  1. Video
  2. ID                                       : 1
  3. Format                                   : HEVC
  4. Format/Info                              : High Efficiency Video Coding
  5. Format profile                           : Main [url=/cdn-cgi/l/email-protection][email protected][/url]@High
  6. Codec ID                                 : V_MPEGH/ISO/HEVC
  7. Duration                                 : 1 h 58 min
  8. Bit rate                                 : 52.5 Mb/s
  9. Width                                    : 3 840 pixels
  10. Height                                   : 2 076 pixels
  11. Display aspect ratio                     : 1.85:1
  12. Frame rate mode                          : Constant
  13. Frame rate                               : 23.976 (24000/1001) FPS
  14. Color space                              : YUV
  15. Chroma subsampling                       : 4:2:0
  16. Bit depth                                : 10 bits
  17. Bits/(Pixel*Frame)                       : 0.275
  18. Stream size                              : 43.6 GiB (85%)
  19. Title                                    : Bad.Boys.1995.2160p.BluRay.x265.10bit.SDR.DTS-HD.MA.TrueHD.7.1.Atmos-SWTYBLZ
  20. Writing library                          : x265 2.8+54-79c76e42cb28:[Windows][GCC 7.3.1][64 bit] 10bit
  21. Encoding settings                        : cpuid=1111039 / frame-threads=16 / numa-pools=24,24,24,24 / wpp / no-pmode / no-pme / no-psnr / no-ssim / log-level=2 / input-csp=1 / input-res=3840x2076 / interlace=0 / total-frames=0 / level-idc=51 / high-tier=1 / uhd-bd=0 / ref=3 / no-allow-non-conformance / repeat-headers / annexb / aud / hrd / info / hash=0 / no-temporal-layers / no-open-gop / min-keyint=1 / keyint=24 / gop-lookahead=0 / bframes=4 / b-adapt=2 / b-pyramid / bframe-bias=0 / rc-lookahead=25 / lookahead-slices=4 / scenecut=40 / radl=0 / no-intra-refresh / ctu=64 / min-cu-size=8 / no-rect / no-amp / max-tu-size=32 / tu-inter-depth=1 / tu-intra-depth=1 / limit-tu=0 / rdoq-level=0 / dynamic-rd=0.00 / no-ssim-rd / signhide / no-tskip / nr-intra=0 / nr-inter=0 / no-constrained-intra / strong-intra-smoothing / max-merge=2 / limit-refs=3 / no-limit-modes / me=1 / subme=2 / merange=57 / temporal-mvp / weightp / no-weightb / no-analyze-src-pics / deblock=0:0 / no-sao / no-sao-non-deblock / rd=3 / no-early-skip / rskip / no-fast-intra / no-tskip-fast / no-cu-lossless / no-b-intra / no-splitrd-skip / rdpenalty=0 / psy-rd=2.00 / psy-rdoq=0.00 / no-rd-refine / no-lossless / cbqpoffs=0 / crqpoffs=0 / rc=crf / crf=20.0 / qcomp=0.60 / qpstep=4 / stats-write=0 / stats-read=0 / vbv-maxrate=160000 / vbv-bufsize=160000 / vbv-init=0.9 / crf-max=0.0 / crf-min=0.0 / ipratio=1.40 / pbratio=1.30 / aq-mode=1 / aq-strength=1.00 / cutree / zone-count=0 / no-strict-cbr / qg-size=32 / no-rc-grain / qpmax=69 / qpmin=0 / no-const-vbv / sar=1 / overscan=0 / videoformat=5 / range=0 / colorprim=2 / transfer=2 / colormatrix=2 / chromaloc=0 / display-window=0 / max-cll=0,0 / min-luma=0 / max-luma=1023 / log2-max-poc-lsb=8 / vui-timing-info / vui-hrd-info / slices=1 / opt-qp-pps / opt-ref-list-length-pps / no-multi-pass-opt-rps / scenecut-bias=0.05 / no-opt-cu-delta-qp / no-aq-motion / no-hdr / no-hdr-opt / no-dhdr10-opt / no-idr-recovery-sei / analysis-reuse-level=5 / scale-factor=0 / refine-intra=0 / refine-inter=0 / refine-mv=0 / no-limit-sao / ctu-info=0 / no-lowpass-dct / refine-mv-type=0 / copy-pic=1 / max-ausize-factor=1.0 / no-dynamic-refine / no-single-sei
  22. Default                                  : Yes
  23. Forced                                   : No

  24. Audio #1
  25. ID                                       : 2
  26. Format                                   : TrueHD
  27. Format profile                           : TrueHD+Atmos / TrueHD
  28. Codec ID                                 : A_TRUEHD
  29. Duration                                 : 1 h 58 min
  30. Bit rate mode                            : Variable
  31. Bit rate                                 : 3 750 kb/s
  32. Maximum bit rate                         : 5 721 kb/s
  33. Channel(s)                               : Object Based / 8 channels
  34. Channel positions                        : Object Based / Front: L C R, Side: L R, Back: L R, LFE
  35. Sampling rate                            :  / 48.0 kHz
  36. Frame rate                               : 1 200.000 FPS (40 SPF)
  37. Compression mode                         : Lossless
  38. Stream size                              : 3.11 GiB (6%)
  39. Title                                    : Bad.Boys.1995.2160p.BluRay.x265.10bit.SDR.DTS-HD.MA.TrueHD.7.1.Atmos-SWTYBLZ
  40. Language                                 : English
  41. Default                                  : Yes
  42. Forced                                   : No

  43. Audio #2
  44. ID                                       : 3
  45. Format                                   : DTS
  46. Format/Info                              : Digital Theater Systems
  47. Format profile                           : MA / Core
  48. Codec ID                                 : A_DTS
  49. Duration                                 : 1 h 58 min
  50. Bit rate mode                            : Variable / Constant
  51. Bit rate                                 : 4 106 kb/s / 1 509 kb/s
  52. Channel(s)                               : 8 channels / 6 channels
  53. Channel positions                        : Front: L C R, Side: L R, Back: L R, LFE / Front: L C R, Side: L R, LFE
  54. Sampling rate                            : 48.0 kHz
  55. Frame rate                               : 93.750 FPS (512 SPF)
  56. Bit depth                                : 24 bits
  57. Compression mode                         : Lossless / Lossy
  58. Stream size                              : 3.41 GiB (7%)
  59. Title                                    : Bad.Boys.1995.2160p.BluRay.x265.10bit.SDR.DTS-HD.MA.TrueHD.7.1.Atmos-SWTYBLZ
  60. Language                                 : English
  61. Default                                  : No
  62. Forced                                   : No

  63. Audio #3
  64. ID                                       : 4
  65. Format                                   : AC-3
  66. Format/Info                              : Audio Coding 3
  67. Codec ID                                 : A_AC3
  68. Duration                                 : 1 h 58 min
  69. Bit rate mode                            : Constant
  70. Bit rate                                 : 640 kb/s
  71. Channel(s)                               : 6 channels
  72. Channel positions                        : Front: L C R, Side: L R, LFE
  73. Sampling rate                            : 48.0 kHz
  74. Frame rate                               : 31.250 FPS (1536 SPF)
  75. Bit depth                                : 16 bits
  76. Compression mode                         : Lossy
  77. Stream size                              : 544 MiB (1%)
  78. Title                                    : Bad.Boys.1995.2160p.BluRay.x265.10bit.SDR.DTS-HD.MA.TrueHD.7.1.Atmos-SWTYBLZ
  79. Language                                 : English
  80. Service kind                             : Complete Main
  81. Default                                  : No
  82. Forced                                   : No

  83. Text #1
  84. ID                                       : 5
  85. Format                                   : UTF-8
  86. Codec ID                                 : S_TEXT/UTF8
  87. Codec ID/Info                            : UTF-8 Plain Text
  88. Duration                                 : 1 h 54 min
  89. Bit rate                                 : 67 b/s
  90. Count of elements                        : 1659
  91. Stream size                              : 56.4 KiB (0%)
  92. Title                                    : English-SRT
  93. Language                                 : English
  94. Default                                  : Yes
  95. Forced                                   : No

  96. Text #2
  97. ID                                       : 6
  98. Format                                   : PGS
  99. Muxing mode                              : zlib
  100. Codec ID                                 : S_HDMV/PGS
  101. Codec ID/Info                            : Picture based subtitle format used on BDs/HD-DVDs
  102. Duration                                 : 1 h 54 min
  103. Bit rate                                 : 38.7 kb/s
  104. Count of elements                        : 3318
  105. Stream size                              : 31.6 MiB (0%)
  106. Title                                    : English-PGS
  107. Language                                 : English
  108. Default                                  : No
  109. Forced                                   : No

  110. Text #3
  111. ID                                       : 7
  112. Format                                   : PGS
  113. Muxing mode                              : zlib
  114. Codec ID                                 : S_HDMV/PGS
  115. Codec ID/Info                            : Picture based subtitle format used on BDs/HD-DVDs
  116. Duration                                 : 1 h 57 min
  117. Bit rate                                 : 46.8 kb/s
  118. Count of elements                        : 3945
  119. Stream size                              : 39.3 MiB (0%)
  120. Title                                    : English-SDH-PGS
  121. Language                                 : English
  122. Default                                  : No
  123. Forced                                   : No

  124. Text #4
  125. ID                                       : 8
  126. Format                                   : PGS
  127. Muxing mode                              : zlib
  128. Codec ID                                 : S_HDMV/PGS
  129. Codec ID/Info                            : Picture based subtitle format used on BDs/HD-DVDs
  130. Duration                                 : 1 h 54 min
  131. Bit rate                                 : 38.7 kb/s
  132. Count of elements                        : 3318
  133. Stream size                              : 31.6 MiB (0%)
  134. Title                                    : English-PGS
  135. Language                                 : English
  136. Default                                  : No
  137. Forced                                   : No

  138. Text #5
  139. ID                                       : 9
  140. Format                                   : PGS
  141. Muxing mode                              : zlib
  142. Codec ID                                 : S_HDMV/PGS
  143. Codec ID/Info                            : Picture based subtitle format used on BDs/HD-DVDs
  144. Duration                                 : 1 h 57 min
  145. Bit rate                                 : 46.9 kb/s
  146. Count of elements                        : 3945
  147. Stream size                              : 39.3 MiB (0%)
  148. Title                                    : English-SDH-PGS
  149. Language                                 : English
  150. Default                                  : No
  151. Forced                                   : No

  152. Text #6
  153. ID                                       : 10
  154. Format                                   : PGS
  155. Muxing mode                              : zlib
  156. Codec ID                                 : S_HDMV/PGS
  157. Codec ID/Info                            : Picture based subtitle format used on BDs/HD-DVDs
  158. Duration                                 : 1 h 54 min
  159. Bit rate                                 : 18.3 kb/s
  160. Count of elements                        : 3396
  161. Stream size                              : 14.9 MiB (0%)
  162. Title                                    : Arabic-PGS
  163. Language                                 : Arabic
  164. Default                                  : No
  165. Forced                                   : No

  166. Text #7
  167. ID                                       : 11
  168. Format                                   : PGS
  169. Muxing mode                              : zlib
  170. Codec ID                                 : S_HDMV/PGS
  171. Codec ID/Info                            : Picture based subtitle format used on BDs/HD-DVDs
  172. Duration                                 : 1 h 54 min
  173. Bit rate                                 : 29.9 kb/s
  174. Count of elements                        : 3526
  175. Stream size                              : 24.4 MiB (0%)
  176. Title                                    : Chinese-PGS
  177. Language                                 : Chinese
  178. Default                                  : No
  179. Forced                                   : No

  180. Text #8
  181. ID                                       : 12
  182. Format                                   : PGS
  183. Muxing mode                              : zlib
  184. Codec ID                                 : S_HDMV/PGS
  185. Codec ID/Info                            : Picture based subtitle format used on BDs/HD-DVDs
  186. Duration                                 : 1 h 54 min
  187. Bit rate                                 : 30.0 kb/s
  188. Count of elements                        : 3526
  189. Stream size                              : 24.4 MiB (0%)
  190. Title                                    : Chinese-PGS
  191. Language                                 : Chinese
  192. Default                                  : No
  193. Forced                                   : No

  194. Text #9
  195. ID                                       : 13
  196. Format                                   : PGS
  197. Muxing mode                              : zlib
  198. Codec ID                                 : S_HDMV/PGS
  199. Codec ID/Info                            : Picture based subtitle format used on BDs/HD-DVDs
  200. Duration                                 : 1 h 54 min
  201. Bit rate                                 : 29.7 kb/s
  202. Count of elements                        : 3472
  203. Stream size                              : 24.2 MiB (0%)
  204. Title                                    : Czech-PGS
  205. Language                                 : Czech
  206. Default                                  : No
  207. Forced                                   : No

  208. Text #10
  209. ID                                       : 14
  210. Format                                   : PGS
  211. Muxing mode                              : zlib
  212. Codec ID                                 : S_HDMV/PGS
  213. Codec ID/Info                            : Picture based subtitle format used on BDs/HD-DVDs
  214. Duration                                 : 1 h 54 min
  215. Bit rate                                 : 37.3 kb/s
  216. Count of elements                        : 3418
  217. Stream size                              : 30.5 MiB (0%)
  218. Title                                    : Danish-PGS
  219. Language                                 : Danish
  220. Default                                  : No
  221. Forced                                   : No

  222. Text #11
  223. ID                                       : 15
  224. Format                                   : PGS
  225. Muxing mode                              : zlib
  226. Codec ID                                 : S_HDMV/PGS
  227. Codec ID/Info                            : Picture based subtitle format used on BDs/HD-DVDs
  228. Duration                                 : 1 h 54 min
  229. Bit rate                                 : 33.5 kb/s
  230. Count of elements                        : 3382
  231. Stream size                              : 27.3 MiB (0%)
  232. Title                                    : Dutch-PGS
  233. Language                                 : Dutch
  234. Default                                  : No
  235. Forced                                   : No

  236. Text #12
  237. ID                                       : 16
  238. Format                                   : PGS
  239. Muxing mode                              : zlib
  240. Codec ID                                 : S_HDMV/PGS
  241. Codec ID/Info                            : Picture based subtitle format used on BDs/HD-DVDs
  242. Duration                                 : 1 h 54 min
  243. Bit rate                                 : 35.2 kb/s
  244. Count of elements                        : 3084
  245. Stream size                              : 28.7 MiB (0%)
  246. Title                                    : Finnish-PGS
  247. Language                                 : Finnish
  248. Default                                  : No
  249. Forced                                   : No

  250. Text #13
  251. ID                                       : 17
  252. Format                                   : PGS
  253. Muxing mode                              : zlib
  254. Codec ID                                 : S_HDMV/PGS
  255. Codec ID/Info                            : Picture based subtitle format used on BDs/HD-DVDs
  256. Duration                                 : 1 h 57 min
  257. Bit rate                                 : 31.6 kb/s
  258. Count of elements                        : 3390
  259. Stream size                              : 26.6 MiB (0%)
  260. Title                                    : French-PGS
  261. Language                                 : French
  262. Default                                  : No
  263. Forced                                   : No

  264. Text #14
  265. ID                                       : 18
  266. Format                                   : PGS
  267. Muxing mode                              : zlib
  268. Codec ID                                 : S_HDMV/PGS
  269. Codec ID/Info                            : Picture based subtitle format used on BDs/HD-DVDs
  270. Duration                                 : 1 h 54 min
  271. Bit rate                                 : 38.7 kb/s
  272. Count of elements                        : 3452
  273. Stream size                              : 31.5 MiB (0%)
  274. Title                                    : German-PGS
  275. Language                                 : German
  276. Default                                  : No
  277. Forced                                   : No

  278. Text #15
  279. ID                                       : 19
  280. Format                                   : PGS
  281. Muxing mode                              : zlib
  282. Codec ID                                 : S_HDMV/PGS
  283. Codec ID/Info                            : Picture based subtitle format used on BDs/HD-DVDs
  284. Duration                                 : 1 h 54 min
  285. Bit rate                                 : 30.6 kb/s
  286. Count of elements                        : 3260
  287. Stream size                              : 25.0 MiB (0%)
  288. Title                                    : Greek-PGS
  289. Language                                 : Greek
  290. Default                                  : No
  291. Forced                                   : No

  292. Text #16
  293. ID                                       : 20
  294. Format                                   : PGS
  295. Muxing mode                              : zlib
  296. Codec ID                                 : S_HDMV/PGS
  297. Codec ID/Info                            : Picture based subtitle format used on BDs/HD-DVDs
  298. Duration                                 : 1 h 54 min
  299. Bit rate                                 : 33.6 kb/s
  300. Count of elements                        : 3376
  301. Stream size                              : 27.4 MiB (0%)
  302. Title                                    : Hungarian-PGS
  303. Language                                 : Hungarian
  304. Default                                  : No
  305. Forced                                   : No

  306. Text #17
  307. ID                                       : 21
  308. Format                                   : PGS
  309. Muxing mode                              : zlib
  310. Codec ID                                 : S_HDMV/PGS
  311. Codec ID/Info                            : Picture based subtitle format used on BDs/HD-DVDs
  312. Duration                                 : 1 h 54 min
  313. Bit rate                                 : 41.6 kb/s
  314. Count of elements                        : 3392
  315. Stream size                              : 33.9 MiB (0%)
  316. Title                                    : Italian-PGS
  317. Language                                 : Italian
  318. Default                                  : No
  319. Forced                                   : No

  320. Text #18
  321. ID                                       : 22
  322. Format                                   : PGS
  323. Muxing mode                              : zlib
  324. Codec ID                                 : S_HDMV/PGS
  325. Codec ID/Info                            : Picture based subtitle format used on BDs/HD-DVDs
  326. Duration                                 : 1 h 53 min
  327. Bit rate                                 : 27.2 kb/s
  328. Count of elements                        : 3237
  329. Stream size                              : 22.2 MiB (0%)
  330. Title                                    : Japanese-PGS
  331. Language                                 : Japanese
  332. Default                                  : No
  333. Forced                                   : No

  334. Text #19
  335. ID                                       : 23
  336. Format                                   : PGS
  337. Muxing mode                              : zlib
  338. Codec ID                                 : S_HDMV/PGS
  339. Codec ID/Info                            : Picture based subtitle format used on BDs/HD-DVDs
  340. Duration                                 : 1 h 54 min
  341. Bit rate                                 : 30.2 kb/s
  342. Count of elements                        : 3346
  343. Stream size                              : 24.7 MiB (0%)
  344. Title                                    : Korean-PGS
  345. Language                                 : Korean
  346. Default                                  : No
  347. Forced                                   : No

  348. Text #20
  349. ID                                       : 24
  350. Format                                   : PGS
  351. Muxing mode                              : zlib
  352. Codec ID                                 : S_HDMV/PGS
  353. Codec ID/Info                            : Picture based subtitle format used on BDs/HD-DVDs
  354. Duration                                 : 1 h 54 min
  355. Bit rate                                 : 32.8 kb/s
  356. Count of elements                        : 3468
  357. Stream size                              : 26.7 MiB (0%)
  358. Title                                    : Norwegian-PGS
  359. Language                                 : Norwegian
  360. Default                                  : No
  361. Forced                                   : No

  362. Text #21
  363. ID                                       : 25
  364. Format                                   : PGS
  365. Muxing mode                              : zlib
  366. Codec ID                                 : S_HDMV/PGS
  367. Codec ID/Info                            : Picture based subtitle format used on BDs/HD-DVDs
  368. Duration                                 : 1 h 54 min
  369. Bit rate                                 : 28.1 kb/s
  370. Count of elements                        : 3250
  371. Stream size                              : 22.9 MiB (0%)
  372. Title                                    : Polish-PGS
  373. Language                                 : Polish
  374. Default                                  : No
  375. Forced                                   : No

  376. Text #22
  377. ID                                       : 26
  378. Format                                   : PGS
  379. Muxing mode                              : zlib
  380. Codec ID                                 : S_HDMV/PGS
  381. Codec ID/Info                            : Picture based subtitle format used on BDs/HD-DVDs
  382. Duration                                 : 1 h 54 min
  383. Bit rate                                 : 30.9 kb/s
  384. Count of elements                        : 2748
  385. Stream size                              : 25.2 MiB (0%)
  386. Title                                    : Portuguese-PGS
  387. Language                                 : Portuguese
  388. Default                                  : No
  389. Forced                                   : No

  390. Text #23
  391. ID                                       : 27
  392. Format                                   : PGS
  393. Muxing mode                              : zlib
  394. Codec ID                                 : S_HDMV/PGS
  395. Codec ID/Info                            : Picture based subtitle format used on BDs/HD-DVDs
  396. Duration                                 : 1 h 54 min
  397. Bit rate                                 : 34.9 kb/s
  398. Count of elements                        : 3428
  399. Stream size                              : 28.5 MiB (0%)
  400. Title                                    : Portuguese-PGS
  401. Language                                 : Portuguese
  402. Default                                  : No
  403. Forced                                   : No

  404. Text #24
  405. ID                                       : 28
  406. Format                                   : PGS
  407. Muxing mode                              : zlib
  408. Codec ID                                 : S_HDMV/PGS
  409. Codec ID/Info                            : Picture based subtitle format used on BDs/HD-DVDs
  410. Duration                                 : 1 h 54 min
  411. Bit rate                                 : 37.4 kb/s
  412. Count of elements                        : 3324
  413. Stream size                              : 30.5 MiB (0%)
  414. Title                                    : Romanian-PGS
  415. Language                                 : Romanian
  416. Default                                  : No
  417. Forced                                   : No

  418. Text #25
  419. ID                                       : 29
  420. Format                                   : PGS
  421. Muxing mode                              : zlib
  422. Codec ID                                 : S_HDMV/PGS
  423. Codec ID/Info                            : Picture based subtitle format used on BDs/HD-DVDs
  424. Duration                                 : 1 h 54 min
  425. Bit rate                                 : 37.2 kb/s
  426. Count of elements                        : 3360
  427. Stream size                              : 30.4 MiB (0%)
  428. Title                                    : Slovak-PGS
  429. Language                                 : Slovak
  430. Default                                  : No
  431. Forced                                   : No

  432. Text #26
  433. ID                                       : 30
  434. Format                                   : PGS
  435. Muxing mode                              : zlib
  436. Codec ID                                 : S_HDMV/PGS
  437. Codec ID/Info                            : Picture based subtitle format used on BDs/HD-DVDs
  438. Duration                                 : 1 h 54 min
  439. Bit rate                                 : 36.6 kb/s
  440. Count of elements                        : 3386
  441. Stream size                              : 29.8 MiB (0%)
  442. Title                                    : Spanish-PGS
  443. Language                                 : Spanish
  444. Default                                  : No
  445. Forced                                   : No

  446. Text #27
  447. ID                                       : 31
  448. Format                                   : PGS
  449. Muxing mode                              : zlib
  450. Codec ID                                 : S_HDMV/PGS
  451. Codec ID/Info                            : Picture based subtitle format used on BDs/HD-DVDs
  452. Duration                                 : 1 h 54 min
  453. Bit rate                                 : 37.7 kb/s
  454. Count of elements                        : 3216
  455. Stream size                              : 30.8 MiB (0%)
  456. Title                                    : Spanish-PGS
  457. Language                                 : Spanish
  458. Default                                  : No
  459. Forced                                   : No

  460. Text #28
  461. ID                                       : 32
  462. Format                                   : PGS
  463. Muxing mode                              : zlib
  464. Codec ID                                 : S_HDMV/PGS
  465. Codec ID/Info                            : Picture based subtitle format used on BDs/HD-DVDs
  466. Duration                                 : 1 h 54 min
  467. Bit rate                                 : 32.3 kb/s
  468. Count of elements                        : 3430
  469. Stream size                              : 26.4 MiB (0%)
  470. Title                                    : Swedish-PGS
  471. Language                                 : Swedish
  472. Default                                  : No
  473. Forced                                   : No

  474. Text #29
  475. ID                                       : 33
  476. Format                                   : PGS
  477. Muxing mode                              : zlib
  478. Codec ID                                 : S_HDMV/PGS
  479. Codec ID/Info                            : Picture based subtitle format used on BDs/HD-DVDs
  480. Duration                                 : 1 h 54 min
  481. Bit rate                                 : 32.3 kb/s
  482. Count of elements                        : 3526
  483. Stream size                              : 26.3 MiB (0%)
  484. Title                                    : Thai-PGS
  485. Language                                 : Thai
  486. Default                                  : No
  487. Forced                                   : No

  488. Text #30
  489. ID                                       : 34
  490. Format                                   : PGS
  491. Muxing mode                              : zlib
  492. Codec ID                                 : S_HDMV/PGS
  493. Codec ID/Info                            : Picture based subtitle format used on BDs/HD-DVDs
  494. Duration                                 : 1 h 54 min
  495. Bit rate                                 : 32.4 kb/s
  496. Count of elements                        : 3346
  497. Stream size                              : 26.4 MiB (0%)
  498. Title                                    : Turkish-PGS
  499. Language                                 : Turkish
  500. Default                                  : No
  501. Forced                                   : No

  502. Text #31
  503. ID                                       : 35
  504. Format                                   : PGS
  505. Muxing mode                              : zlib
  506. Codec ID                                 : S_HDMV/PGS
  507. Codec ID/Info                            : Picture based subtitle format used on BDs/HD-DVDs
  508. Duration                                 : 1 s 585 ms
  509. Bit rate                                 : 31.9 kb/s
  510. Count of elements                        : 2
  511. Stream size                              : 6.17 KiB (0%)
  512. Title                                    : French-FORCED-PGS
  513. Language                                 : French
  514. Default                                  : No
  515. Forced                                   : No

  516. Text #32
  517. ID                                       : 36
  518. Format                                   : PGS
  519. Muxing mode                              : zlib
  520. Codec ID                                 : S_HDMV/PGS
  521. Codec ID/Info                            : Picture based subtitle format used on BDs/HD-DVDs
  522. Duration                                 : 1 h 41 min
  523. Bit rate                                 : 122 b/s
  524. Count of elements                        : 18
  525. Stream size                              : 91.2 KiB (0%)
  526. Title                                    : Japanese-FORCED-PGS
  527. Language                                 : Japanese
  528. Default                                  : No
  529. Forced                                   : No

  530. Text #33
  531. ID                                       : 37
  532. Format                                   : PGS
  533. Muxing mode                              : zlib
  534. Codec ID                                 : S_HDMV/PGS
  535. Codec ID/Info                            : Picture based subtitle format used on BDs/HD-DVDs
  536. Duration                                 : 1 h 36 min
  537. Bit rate                                 : 107 b/s
  538. Count of elements                        : 12
  539. Stream size                              : 76.0 KiB (0%)
  540. Title                                    : Russian-FORCED-PGS
  541. Language                                 : Russian
  542. Default                                  : No
  543. Forced                                   : No

  544. Menu
  545. 00:00:00.000                             : :Chapter 1
  546. 00:05:07.473                             : :Chapter 2
  547. 00:12:01.971                             : :Chapter 3
  548. 00:17:38.098                             : :Chapter 4
  549. 00:23:33.203                             : :Chapter 5
  550. 00:31:31.764                             : :Chapter 6
  551. 00:41:09.133                             : :Chapter 7
  552. 00:47:35.310                             : :Chapter 8
  553. 00:54:37.357                             : :Chapter 9
  554. 01:04:05.675                             : :Chapter 10
  555. 01:13:49.800                             : :Chapter 11
  556. 01:20:21.483                             : :Chapter 12
  557. 01:27:58.523                             : :Chapter 13
  558. 01:34:54.271                             : :Chapter 14
  559. 01:43:09.308                             : :Chapter 15
  560. 01:50:51.353                             : :Chapter 16
复制代码

复制代码








回复

使用道具 举报

蓝光币
1324
发表于 2018-9-9 14:35:45 | 显示全部楼层
楼主加油,我们都看好你哦。:):)
回复 支持 反对

使用道具 举报

蓝光币
56
发表于 2018-11-4 15:12:38 | 显示全部楼层
强烈支持楼主ing……
回复 支持 反对

使用道具 举报

懒得打字嘛,点击右侧快捷回复 【右侧内容,后台自定义】
您需要登录后才可以回帖 登录 | 立即加入

本版积分规则

Archiver|小黑屋| 蓝光电影网 |网站地图

Copyright © 2021 Comsenz Inc. Powered by 蓝光电影网

蓝光电影网

本站内容由用户自主分享和转载自互联网,转载目的在于传递更多信息,并不代表本网赞同其观点和对其真实性负责。

如有侵权、违反国家法律政策行为,请联系我们,我们会第一时间及时清除和处理!

举报反馈邮箱:[email protected]

快速回复 返回顶部 返回列表