找回密码

蓝光电影网

查看: 3965|回复: 9

绝地战警/坏小子 Bad.Boys.1995.2160p.BluRay.x264.8bit.SDR.DTS-HD.MA.TrueHD.7.1.Atmos-SWTYBLZ 57.69GB

  [复制链接]
蓝光币
623
发表于 2018-9-5 09:42:43 | 显示全部楼层 |阅读模式


◎译  名 绝地战警/坏小子/重案梦幻组
◎片  名 Bad Boys
◎年  代 1995
◎产  地 美国
◎类  别 笑剧/行动/犯罪
◎语  言 英语
◎上映日期 1995-04-07(美国)/1995-12(中国大陆)
◎豆瓣评分 7.4/10 from 25,010 users
◎豆瓣链接 https://movie.douban.com/subject/1296102/
◎片  长 119分钟
◎导  演 迈克尔·贝 Michael Bay
◎主  演 马丁·劳伦斯 Martin Lawrence
      威尔·史姑娘 Will Smith
      蒂娅·里欧妮 Téa Leoni
      切基·卡尤 Tchéky Karyo
      特里萨·兰德尔 Theresa Randle
      乔·潘托里亚诺 Joe Pantoliano
      丽莎·博伊尔 Lisa Boyle
      Michael Taliferro
      马克·麦考利 Marc Macaulay
      弗兰克·约翰·休斯 Frank John Hughes
      安娜·莱文 Anna Levine
      萨姆·阿耶尔斯 Sam Ayers
      玛格·海根柏格 Marg Helgenberger
      内斯特·塞拉诺 Nestor Serrano
      胡里奥·奥斯卡·门乔索 Julio Oscar Mechoso
      迈克尔·因佩里奥利 Michael Imperioli
      Saverio Guerra
      肖恩·托布  Shaun Toub
      Marty McSorley
      凯文·考利甘 Kevin Corrigan
      约翰·萨利 John Salley

◎简  介

  迈阿密警局的一对“黄金”同伴,顾家爱妻的好汉子宾纳(马丁?劳伦斯)和穿着鲜明风骚倜傥的富家子弟劳瑞(威尔?史姑娘),受命清查一桩代价上亿美圆的毒品证物失窃案,假如不能实时完成使命,他俩就得卷铺盖走人。
  在两人疲于奔命之际,该案件唯一的性感女证人打电话到警局宣称她愿意指认胁从,但条件是劳瑞必须出头庇护她,否则一切免谈,此时劳瑞恰好不在警局,宾纳为套取线索,情急智生滥竽充数。厥后,为了不落空女证人的信赖,两人只得将对换身份一事停止到底,宾纳在枪林弹雨及汽车追逐中贴身庇护女证人,劳瑞则来到他家中陪伴其妻。

  1. Video
  2. ID                                       : 1
  3. Format                                   : AVC
  4. Format/Info                              : Advanced Video Codec
  5. Format profile                           : [url=/cdn-cgi/l/email-protection][email protected][/url]
  6. Format settings                          : CABAC / 5 Ref Frames
  7. Format settings, CABAC                   : Yes
  8. Format settings, RefFrames               : 5 frames
  9. Codec ID                                 : V_MPEG4/ISO/AVC
  10. Duration                                 : 1 h 58 min
  11. Bit rate                                 : 60.3 Mb/s
  12. Width                                    : 3 840 pixels
  13. Height                                   : 2 076 pixels
  14. Display aspect ratio                     : 1.85:1
  15. Frame rate mode                          : Constant
  16. Frame rate                               : 23.976 (24000/1001) FPS
  17. Color space                              : YUV
  18. Chroma subsampling                       : 4:2:0
  19. Bit depth                                : 8 bits
  20. Scan type                                : Progressive
  21. Bits/(Pixel*Frame)                       : 0.315
  22. Stream size                              : 50.0 GiB (87%)
  23. Title                                    : Bad.Boys.1995.2160p.BluRay.x264.8bit.SDR.DTS-HD.MA.TrueHD.7.1.Atmos-SWTYBLZ
  24. Writing library                          : x264 core 155 r2901 7d0ff22
  25. Encoding settings                        : cabac=1 / ref=5 / deblock=1:-1:-1 / analyse=0x3:0x113 / me=umh / subme=10 / psy=1 / psy_rd=1.00:0.15 / mixed_ref=1 / me_range=48 / chroma_me=1 / trellis=2 / 8x8dct=1 / cqm=0 / deadzone=21,11 / fast_pskip=1 / chroma_qp_offset=-3 / threads=65 / lookahead_threads=5 / sliced_threads=0 / nr=0 / decimate=0 / interlaced=0 / bluray_compat=0 / constrained_intra=0 / bframes=3 / b_pyramid=2 / b_adapt=2 / b_bias=0 / direct=3 / weightb=1 / open_gop=0 / weightp=2 / keyint=250 / keyint_min=23 / scenecut=40 / intra_refresh=0 / rc_lookahead=50 / rc=crf / mbtree=1 / crf=22.0 / qcomp=0.60 / qpmin=0 / qpmax=69 / qpstep=4 / ip_ratio=1.40 / aq=1:1.00
  26. Default                                  : Yes
  27. Forced                                   : No

  28. Audio #1
  29. ID                                       : 2
  30. Format                                   : TrueHD
  31. Format profile                           : TrueHD+Atmos / TrueHD
  32. Codec ID                                 : A_TRUEHD
  33. Duration                                 : 1 h 58 min
  34. Bit rate mode                            : Variable
  35. Bit rate                                 : 3 750 kb/s
  36. Maximum bit rate                         : 5 721 kb/s
  37. Channel(s)                               : Object Based / 8 channels
  38. Channel positions                        : Object Based / Front: L C R, Side: L R, Back: L R, LFE
  39. Sampling rate                            :  / 48.0 kHz
  40. Frame rate                               : 1 200.000 FPS (40 SPF)
  41. Compression mode                         : Lossless
  42. Stream size                              : 3.11 GiB (5%)
  43. Title                                    : Bad.Boys.1995.2160p.BluRay.x264.8bit.SDR.DTS-HD.MA.TrueHD.7.1.Atmos-SWTYBLZ
  44. Language                                 : English
  45. Default                                  : Yes
  46. Forced                                   : No

  47. Audio #2
  48. ID                                       : 3
  49. Format                                   : DTS
  50. Format/Info                              : Digital Theater Systems
  51. Format profile                           : MA / Core
  52. Codec ID                                 : A_DTS
  53. Duration                                 : 1 h 58 min
  54. Bit rate mode                            : Variable / Constant
  55. Bit rate                                 : 4 106 kb/s / 1 509 kb/s
  56. Channel(s)                               : 8 channels / 6 channels
  57. Channel positions                        : Front: L C R, Side: L R, Back: L R, LFE / Front: L C R, Side: L R, LFE
  58. Sampling rate                            : 48.0 kHz
  59. Frame rate                               : 93.750 FPS (512 SPF)
  60. Bit depth                                : 24 bits
  61. Compression mode                         : Lossless / Lossy
  62. Stream size                              : 3.41 GiB (6%)
  63. Title                                    : Bad.Boys.1995.2160p.BluRay.x264.8bit.SDR.DTS-HD.MA.TrueHD.7.1.Atmos-SWTYBLZ
  64. Language                                 : English
  65. Default                                  : No
  66. Forced                                   : No

  67. Audio #3
  68. ID                                       : 4
  69. Format                                   : AC-3
  70. Format/Info                              : Audio Coding 3
  71. Codec ID                                 : A_AC3
  72. Duration                                 : 1 h 58 min
  73. Bit rate mode                            : Constant
  74. Bit rate                                 : 640 kb/s
  75. Channel(s)                               : 6 channels
  76. Channel positions                        : Front: L C R, Side: L R, LFE
  77. Sampling rate                            : 48.0 kHz
  78. Frame rate                               : 31.250 FPS (1536 SPF)
  79. Bit depth                                : 16 bits
  80. Compression mode                         : Lossy
  81. Stream size                              : 544 MiB (1%)
  82. Title                                    : Bad.Boys.1995.2160p.BluRay.x264.8bit.SDR.DTS-HD.MA.TrueHD.7.1.Atmos-SWTYBLZ
  83. Language                                 : English
  84. Service kind                             : Complete Main
  85. Default                                  : No
  86. Forced                                   : No

  87. Text #1
  88. ID                                       : 5
  89. Format                                   : UTF-8
  90. Codec ID                                 : S_TEXT/UTF8
  91. Codec ID/Info                            : UTF-8 Plain Text
  92. Duration                                 : 1 h 54 min
  93. Bit rate                                 : 67 b/s
  94. Count of elements                        : 1659
  95. Stream size                              : 56.4 KiB (0%)
  96. Title                                    : English-SRT
  97. Language                                 : English
  98. Default                                  : Yes
  99. Forced                                   : No

  100. Text #2
  101. ID                                       : 6
  102. Format                                   : PGS
  103. Muxing mode                              : zlib
  104. Codec ID                                 : S_HDMV/PGS
  105. Codec ID/Info                            : Picture based subtitle format used on BDs/HD-DVDs
  106. Duration                                 : 1 h 54 min
  107. Bit rate                                 : 38.7 kb/s
  108. Count of elements                        : 3318
  109. Stream size                              : 31.6 MiB (0%)
  110. Title                                    : English-PGS
  111. Language                                 : English
  112. Default                                  : No
  113. Forced                                   : No

  114. Text #3
  115. ID                                       : 7
  116. Format                                   : PGS
  117. Muxing mode                              : zlib
  118. Codec ID                                 : S_HDMV/PGS
  119. Codec ID/Info                            : Picture based subtitle format used on BDs/HD-DVDs
  120. Duration                                 : 1 h 57 min
  121. Bit rate                                 : 46.8 kb/s
  122. Count of elements                        : 3945
  123. Stream size                              : 39.3 MiB (0%)
  124. Title                                    : English-SDH-PGS
  125. Language                                 : English
  126. Default                                  : No
  127. Forced                                   : No

  128. Text #4
  129. ID                                       : 8
  130. Format                                   : PGS
  131. Muxing mode                              : zlib
  132. Codec ID                                 : S_HDMV/PGS
  133. Codec ID/Info                            : Picture based subtitle format used on BDs/HD-DVDs
  134. Duration                                 : 1 h 54 min
  135. Bit rate                                 : 38.7 kb/s
  136. Count of elements                        : 3318
  137. Stream size                              : 31.6 MiB (0%)
  138. Title                                    : English-PGS
  139. Language                                 : English
  140. Default                                  : No
  141. Forced                                   : No

  142. Text #5
  143. ID                                       : 9
  144. Format                                   : PGS
  145. Muxing mode                              : zlib
  146. Codec ID                                 : S_HDMV/PGS
  147. Codec ID/Info                            : Picture based subtitle format used on BDs/HD-DVDs
  148. Duration                                 : 1 h 57 min
  149. Bit rate                                 : 46.9 kb/s
  150. Count of elements                        : 3945
  151. Stream size                              : 39.3 MiB (0%)
  152. Title                                    : English-SDH-PGS
  153. Language                                 : English
  154. Default                                  : No
  155. Forced                                   : No

  156. Text #6
  157. ID                                       : 10
  158. Format                                   : PGS
  159. Muxing mode                              : zlib
  160. Codec ID                                 : S_HDMV/PGS
  161. Codec ID/Info                            : Picture based subtitle format used on BDs/HD-DVDs
  162. Duration                                 : 1 h 54 min
  163. Bit rate                                 : 18.3 kb/s
  164. Count of elements                        : 3396
  165. Stream size                              : 14.9 MiB (0%)
  166. Title                                    : Arabic-PGS
  167. Language                                 : Arabic
  168. Default                                  : No
  169. Forced                                   : No

  170. Text #7
  171. ID                                       : 11
  172. Format                                   : PGS
  173. Muxing mode                              : zlib
  174. Codec ID                                 : S_HDMV/PGS
  175. Codec ID/Info                            : Picture based subtitle format used on BDs/HD-DVDs
  176. Duration                                 : 1 h 54 min
  177. Bit rate                                 : 29.9 kb/s
  178. Count of elements                        : 3526
  179. Stream size                              : 24.4 MiB (0%)
  180. Title                                    : Chinese-PGS
  181. Language                                 : Chinese
  182. Default                                  : No
  183. Forced                                   : No

  184. Text #8
  185. ID                                       : 12
  186. Format                                   : PGS
  187. Muxing mode                              : zlib
  188. Codec ID                                 : S_HDMV/PGS
  189. Codec ID/Info                            : Picture based subtitle format used on BDs/HD-DVDs
  190. Duration                                 : 1 h 54 min
  191. Bit rate                                 : 30.0 kb/s
  192. Count of elements                        : 3526
  193. Stream size                              : 24.4 MiB (0%)
  194. Title                                    : Chinese-PGS
  195. Language                                 : Chinese
  196. Default                                  : No
  197. Forced                                   : No

  198. Text #9
  199. ID                                       : 13
  200. Format                                   : PGS
  201. Muxing mode                              : zlib
  202. Codec ID                                 : S_HDMV/PGS
  203. Codec ID/Info                            : Picture based subtitle format used on BDs/HD-DVDs
  204. Duration                                 : 1 h 54 min
  205. Bit rate                                 : 29.7 kb/s
  206. Count of elements                        : 3472
  207. Stream size                              : 24.2 MiB (0%)
  208. Title                                    : Czech-PGS
  209. Language                                 : Czech
  210. Default                                  : No
  211. Forced                                   : No

  212. Text #10
  213. ID                                       : 14
  214. Format                                   : PGS
  215. Muxing mode                              : zlib
  216. Codec ID                                 : S_HDMV/PGS
  217. Codec ID/Info                            : Picture based subtitle format used on BDs/HD-DVDs
  218. Duration                                 : 1 h 54 min
  219. Bit rate                                 : 37.3 kb/s
  220. Count of elements                        : 3418
  221. Stream size                              : 30.5 MiB (0%)
  222. Title                                    : Danish-PGS
  223. Language                                 : Danish
  224. Default                                  : No
  225. Forced                                   : No

  226. Text #11
  227. ID                                       : 15
  228. Format                                   : PGS
  229. Muxing mode                              : zlib
  230. Codec ID                                 : S_HDMV/PGS
  231. Codec ID/Info                            : Picture based subtitle format used on BDs/HD-DVDs
  232. Duration                                 : 1 h 54 min
  233. Bit rate                                 : 33.5 kb/s
  234. Count of elements                        : 3382
  235. Stream size                              : 27.3 MiB (0%)
  236. Title                                    : Dutch-PGS
  237. Language                                 : Dutch
  238. Default                                  : No
  239. Forced                                   : No

  240. Text #12
  241. ID                                       : 16
  242. Format                                   : PGS
  243. Muxing mode                              : zlib
  244. Codec ID                                 : S_HDMV/PGS
  245. Codec ID/Info                            : Picture based subtitle format used on BDs/HD-DVDs
  246. Duration                                 : 1 h 54 min
  247. Bit rate                                 : 35.2 kb/s
  248. Count of elements                        : 3084
  249. Stream size                              : 28.7 MiB (0%)
  250. Title                                    : Finnish-PGS
  251. Language                                 : Finnish
  252. Default                                  : No
  253. Forced                                   : No

  254. Text #13
  255. ID                                       : 17
  256. Format                                   : PGS
  257. Muxing mode                              : zlib
  258. Codec ID                                 : S_HDMV/PGS
  259. Codec ID/Info                            : Picture based subtitle format used on BDs/HD-DVDs
  260. Duration                                 : 1 h 57 min
  261. Bit rate                                 : 31.6 kb/s
  262. Count of elements                        : 3390
  263. Stream size                              : 26.6 MiB (0%)
  264. Title                                    : French-PGS
  265. Language                                 : French
  266. Default                                  : No
  267. Forced                                   : No

  268. Text #14
  269. ID                                       : 18
  270. Format                                   : PGS
  271. Muxing mode                              : zlib
  272. Codec ID                                 : S_HDMV/PGS
  273. Codec ID/Info                            : Picture based subtitle format used on BDs/HD-DVDs
  274. Duration                                 : 1 h 54 min
  275. Bit rate                                 : 38.7 kb/s
  276. Count of elements                        : 3452
  277. Stream size                              : 31.5 MiB (0%)
  278. Title                                    : German-PGS
  279. Language                                 : German
  280. Default                                  : No
  281. Forced                                   : No

  282. Text #15
  283. ID                                       : 19
  284. Format                                   : PGS
  285. Muxing mode                              : zlib
  286. Codec ID                                 : S_HDMV/PGS
  287. Codec ID/Info                            : Picture based subtitle format used on BDs/HD-DVDs
  288. Duration                                 : 1 h 54 min
  289. Bit rate                                 : 30.6 kb/s
  290. Count of elements                        : 3260
  291. Stream size                              : 25.0 MiB (0%)
  292. Title                                    : Greek-PGS
  293. Language                                 : Greek
  294. Default                                  : No
  295. Forced                                   : No

  296. Text #16
  297. ID                                       : 20
  298. Format                                   : PGS
  299. Muxing mode                              : zlib
  300. Codec ID                                 : S_HDMV/PGS
  301. Codec ID/Info                            : Picture based subtitle format used on BDs/HD-DVDs
  302. Duration                                 : 1 h 54 min
  303. Bit rate                                 : 33.6 kb/s
  304. Count of elements                        : 3376
  305. Stream size                              : 27.4 MiB (0%)
  306. Title                                    : Hungarian-PGS
  307. Language                                 : Hungarian
  308. Default                                  : No
  309. Forced                                   : No

  310. Text #17
  311. ID                                       : 21
  312. Format                                   : PGS
  313. Muxing mode                              : zlib
  314. Codec ID                                 : S_HDMV/PGS
  315. Codec ID/Info                            : Picture based subtitle format used on BDs/HD-DVDs
  316. Duration                                 : 1 h 54 min
  317. Bit rate                                 : 41.6 kb/s
  318. Count of elements                        : 3392
  319. Stream size                              : 33.9 MiB (0%)
  320. Title                                    : Italian-PGS
  321. Language                                 : Italian
  322. Default                                  : No
  323. Forced                                   : No

  324. Text #18
  325. ID                                       : 22
  326. Format                                   : PGS
  327. Muxing mode                              : zlib
  328. Codec ID                                 : S_HDMV/PGS
  329. Codec ID/Info                            : Picture based subtitle format used on BDs/HD-DVDs
  330. Duration                                 : 1 h 53 min
  331. Bit rate                                 : 27.2 kb/s
  332. Count of elements                        : 3237
  333. Stream size                              : 22.2 MiB (0%)
  334. Title                                    : Japanese-PGS
  335. Language                                 : Japanese
  336. Default                                  : No
  337. Forced                                   : No

  338. Text #19
  339. ID                                       : 23
  340. Format                                   : PGS
  341. Muxing mode                              : zlib
  342. Codec ID                                 : S_HDMV/PGS
  343. Codec ID/Info                            : Picture based subtitle format used on BDs/HD-DVDs
  344. Duration                                 : 1 h 54 min
  345. Bit rate                                 : 30.2 kb/s
  346. Count of elements                        : 3346
  347. Stream size                              : 24.7 MiB (0%)
  348. Title                                    : Korean-PGS
  349. Language                                 : Korean
  350. Default                                  : No
  351. Forced                                   : No

  352. Text #20
  353. ID                                       : 24
  354. Format                                   : PGS
  355. Muxing mode                              : zlib
  356. Codec ID                                 : S_HDMV/PGS
  357. Codec ID/Info                            : Picture based subtitle format used on BDs/HD-DVDs
  358. Duration                                 : 1 h 54 min
  359. Bit rate                                 : 32.8 kb/s
  360. Count of elements                        : 3468
  361. Stream size                              : 26.7 MiB (0%)
  362. Title                                    : Norwegian-PGS
  363. Language                                 : Norwegian
  364. Default                                  : No
  365. Forced                                   : No

  366. Text #21
  367. ID                                       : 25
  368. Format                                   : PGS
  369. Muxing mode                              : zlib
  370. Codec ID                                 : S_HDMV/PGS
  371. Codec ID/Info                            : Picture based subtitle format used on BDs/HD-DVDs
  372. Duration                                 : 1 h 54 min
  373. Bit rate                                 : 28.1 kb/s
  374. Count of elements                        : 3250
  375. Stream size                              : 22.9 MiB (0%)
  376. Title                                    : Polish-PGS
  377. Language                                 : Polish
  378. Default                                  : No
  379. Forced                                   : No

  380. Text #22
  381. ID                                       : 26
  382. Format                                   : PGS
  383. Muxing mode                              : zlib
  384. Codec ID                                 : S_HDMV/PGS
  385. Codec ID/Info                            : Picture based subtitle format used on BDs/HD-DVDs
  386. Duration                                 : 1 h 54 min
  387. Bit rate                                 : 30.9 kb/s
  388. Count of elements                        : 2748
  389. Stream size                              : 25.2 MiB (0%)
  390. Title                                    : Portuguese-PGS
  391. Language                                 : Portuguese
  392. Default                                  : No
  393. Forced                                   : No

  394. Text #23
  395. ID                                       : 27
  396. Format                                   : PGS
  397. Muxing mode                              : zlib
  398. Codec ID                                 : S_HDMV/PGS
  399. Codec ID/Info                            : Picture based subtitle format used on BDs/HD-DVDs
  400. Duration                                 : 1 h 54 min
  401. Bit rate                                 : 34.9 kb/s
  402. Count of elements                        : 3428
  403. Stream size                              : 28.5 MiB (0%)
  404. Title                                    : Portuguese-PGS
  405. Language                                 : Portuguese
  406. Default                                  : No
  407. Forced                                   : No

  408. Text #24
  409. ID                                       : 28
  410. Format                                   : PGS
  411. Muxing mode                              : zlib
  412. Codec ID                                 : S_HDMV/PGS
  413. Codec ID/Info                            : Picture based subtitle format used on BDs/HD-DVDs
  414. Duration                                 : 1 h 54 min
  415. Bit rate                                 : 37.4 kb/s
  416. Count of elements                        : 3324
  417. Stream size                              : 30.5 MiB (0%)
  418. Title                                    : Romanian-PGS
  419. Language                                 : Romanian
  420. Default                                  : No
  421. Forced                                   : No

  422. Text #25
  423. ID                                       : 29
  424. Format                                   : PGS
  425. Muxing mode                              : zlib
  426. Codec ID                                 : S_HDMV/PGS
  427. Codec ID/Info                            : Picture based subtitle format used on BDs/HD-DVDs
  428. Duration                                 : 1 h 54 min
  429. Bit rate                                 : 37.2 kb/s
  430. Count of elements                        : 3360
  431. Stream size                              : 30.4 MiB (0%)
  432. Title                                    : Slovak-PGS
  433. Language                                 : Slovak
  434. Default                                  : No
  435. Forced                                   : No

  436. Text #26
  437. ID                                       : 30
  438. Format                                   : PGS
  439. Muxing mode                              : zlib
  440. Codec ID                                 : S_HDMV/PGS
  441. Codec ID/Info                            : Picture based subtitle format used on BDs/HD-DVDs
  442. Duration                                 : 1 h 54 min
  443. Bit rate                                 : 36.6 kb/s
  444. Count of elements                        : 3386
  445. Stream size                              : 29.8 MiB (0%)
  446. Title                                    : Spanish-PGS
  447. Language                                 : Spanish
  448. Default                                  : No
  449. Forced                                   : No

  450. Text #27
  451. ID                                       : 31
  452. Format                                   : PGS
  453. Muxing mode                              : zlib
  454. Codec ID                                 : S_HDMV/PGS
  455. Codec ID/Info                            : Picture based subtitle format used on BDs/HD-DVDs
  456. Duration                                 : 1 h 54 min
  457. Bit rate                                 : 37.7 kb/s
  458. Count of elements                        : 3216
  459. Stream size                              : 30.8 MiB (0%)
  460. Title                                    : Spanish-PGS
  461. Language                                 : Spanish
  462. Default                                  : No
  463. Forced                                   : No

  464. Text #28
  465. ID                                       : 32
  466. Format                                   : PGS
  467. Muxing mode                              : zlib
  468. Codec ID                                 : S_HDMV/PGS
  469. Codec ID/Info                            : Picture based subtitle format used on BDs/HD-DVDs
  470. Duration                                 : 1 h 54 min
  471. Bit rate                                 : 32.3 kb/s
  472. Count of elements                        : 3430
  473. Stream size                              : 26.4 MiB (0%)
  474. Title                                    : Swedish-PGS
  475. Language                                 : Swedish
  476. Default                                  : No
  477. Forced                                   : No

  478. Text #29
  479. ID                                       : 33
  480. Format                                   : PGS
  481. Muxing mode                              : zlib
  482. Codec ID                                 : S_HDMV/PGS
  483. Codec ID/Info                            : Picture based subtitle format used on BDs/HD-DVDs
  484. Duration                                 : 1 h 54 min
  485. Bit rate                                 : 32.3 kb/s
  486. Count of elements                        : 3526
  487. Stream size                              : 26.3 MiB (0%)
  488. Title                                    : Thai-PGS
  489. Language                                 : Thai
  490. Default                                  : No
  491. Forced                                   : No

  492. Text #30
  493. ID                                       : 34
  494. Format                                   : PGS
  495. Muxing mode                              : zlib
  496. Codec ID                                 : S_HDMV/PGS
  497. Codec ID/Info                            : Picture based subtitle format used on BDs/HD-DVDs
  498. Duration                                 : 1 h 54 min
  499. Bit rate                                 : 32.4 kb/s
  500. Count of elements                        : 3346
  501. Stream size                              : 26.4 MiB (0%)
  502. Title                                    : Turkish-PGS
  503. Language                                 : Turkish
  504. Default                                  : No
  505. Forced                                   : No

  506. Text #31
  507. ID                                       : 35
  508. Format                                   : PGS
  509. Muxing mode                              : zlib
  510. Codec ID                                 : S_HDMV/PGS
  511. Codec ID/Info                            : Picture based subtitle format used on BDs/HD-DVDs
  512. Duration                                 : 1 s 585 ms
  513. Bit rate                                 : 31.9 kb/s
  514. Count of elements                        : 2
  515. Stream size                              : 6.17 KiB (0%)
  516. Title                                    : French-FORCED-PGS
  517. Language                                 : French
  518. Default                                  : No
  519. Forced                                   : No

  520. Text #32
  521. ID                                       : 36
  522. Format                                   : PGS
  523. Muxing mode                              : zlib
  524. Codec ID                                 : S_HDMV/PGS
  525. Codec ID/Info                            : Picture based subtitle format used on BDs/HD-DVDs
  526. Duration                                 : 1 h 41 min
  527. Bit rate                                 : 122 b/s
  528. Count of elements                        : 18
  529. Stream size                              : 91.2 KiB (0%)
  530. Title                                    : Japanese-FORCED-PGS
  531. Language                                 : Japanese
  532. Default                                  : No
  533. Forced                                   : No

  534. Text #33
  535. ID                                       : 37
  536. Format                                   : PGS
  537. Muxing mode                              : zlib
  538. Codec ID                                 : S_HDMV/PGS
  539. Codec ID/Info                            : Picture based subtitle format used on BDs/HD-DVDs
  540. Duration                                 : 1 h 36 min
  541. Bit rate                                 : 107 b/s
  542. Count of elements                        : 12
  543. Stream size                              : 76.0 KiB (0%)
  544. Title                                    : Russian-FORCED-PGS
  545. Language                                 : Russian
  546. Default                                  : No
  547. Forced                                   : No

  548. Menu
  549. 00:00:00.000                             : :Chapter 1
  550. 00:05:07.473                             : :Chapter 2
  551. 00:12:01.971                             : :Chapter 3
  552. 00:17:38.098                             : :Chapter 4
  553. 00:23:33.203                             : :Chapter 5
  554. 00:31:31.764                             : :Chapter 6
  555. 00:41:09.133                             : :Chapter 7
  556. 00:47:35.310                             : :Chapter 8
  557. 00:54:37.357                             : :Chapter 9
  558. 01:04:05.675                             : :Chapter 10
  559. 01:13:49.800                             : :Chapter 11
  560. 01:20:21.483                             : :Chapter 12
  561. 01:27:58.523                             : :Chapter 13
  562. 01:34:54.271                             : :Chapter 14
  563. 01:43:09.308                             : :Chapter 15
  564. 01:50:51.353                             : :Chapter 16
复制代码

复制代码









回复

使用道具 举报

蓝光币
1244
发表于 2018-9-5 10:40:11 | 显示全部楼层
老电影还是很好看的 !!!!!!!!!!!  谢谢分享  !!!!!!!!!!!!!!!!!
回复 支持 反对

使用道具 举报

蓝光币
323
发表于 2018-9-6 16:57:55 | 显示全部楼层
强烈支持楼主ing……
回复 支持 反对

使用道具 举报

蓝光币
514
发表于 2018-9-6 21:26:36 | 显示全部楼层
激动人心,无法言表!
回复 支持 反对

使用道具 举报

蓝光币
189
发表于 2018-9-7 08:03:40 | 显示全部楼层
强烈支持楼主ing……
回复 支持 反对

使用道具 举报

蓝光币
1324
发表于 2018-9-7 16:12:57 | 显示全部楼层
真是被感动的痛哭流涕……:):)
回复 支持 反对

使用道具 举报

蓝光币
821
发表于 2018-9-7 20:32:21 | 显示全部楼层
强烈支持楼主ing……
回复 支持 反对

使用道具 举报

蓝光币
514
发表于 2018-9-7 21:15:23 | 显示全部楼层
我只是路过打酱油的。
回复 支持 反对

使用道具 举报

蓝光币
674
发表于 2018-9-8 10:18:01 | 显示全部楼层
强烈支持楼主ing……
回复 支持 反对

使用道具 举报

蓝光币
135
发表于 2018-9-24 04:55:30 | 显示全部楼层
感谢分享!!
回复

使用道具 举报

懒得打字嘛,点击右侧快捷回复 【右侧内容,后台自定义】
您需要登录后才可以回帖 登录 | 立即加入

本版积分规则

Archiver|小黑屋| 蓝光电影网 |网站地图

Copyright © 2021 Comsenz Inc. Powered by 蓝光电影网

蓝光电影网

本站内容由用户自主分享和转载自互联网,转载目的在于传递更多信息,并不代表本网赞同其观点和对其真实性负责。

如有侵权、违反国家法律政策行为,请联系我们,我们会第一时间及时清除和处理!

举报反馈邮箱:[email protected]

快速回复 返回顶部 返回列表