找回密码

蓝光电影网

查看: 1198|回复: 3

[奇幻] 白雪公主/白雪魔后 Snow.White.A.Tale.of.Terror.1997.1080p.BluRay.REMUX.AVC.DTS-HD.MA.5.1-FGT 19.72GB

[复制链接]
蓝光币
623
发表于 2018-9-5 09:44:35 | 显示全部楼层 |阅读模式

白雪公主/白雪魔后 Snow.White.A.Tale.of.Terror.1997.1080p.BluRay.REMUX.AVC.DTS-HD.MA.5.1-FGT 19.72GB-1.jpg
◎译  名 白雪公主/白雪魔后
◎片  名 Snow White: A Tale of Terror
◎年  代 1997
◎产  地 美国
◎类  别 奇异/可骇
◎语  言 英语
◎上映日期 1997-07-18
◎豆瓣评分 6.6/10 from 378 users
◎豆瓣链接 https://movie.douban.com/subject/1301603/
◎片  长 100分钟
◎导  演 迈克尔 科恩 (Michael Cohn (I))
◎主  演 西格妮·韦弗 Sigourney Weaver
      萨姆·尼尔
      吉尔·贝洛

◎简  介

  由英、美两国结合建造,在美国的有线电视台首播然后才在各地电影院推出公映的另类童话片,将传统的《白雪公主》故事改拍成黑暗、阴森和血腥的哥德式可骇片,配角也酿成了西格尔内.维弗饰演的狠心后母。她由于从魔镜中晓得继女儿居然比她还标致,乃用毒苹果加害继女,并用各类巫术魔法将她熬煎。全片在捷克等东欧国家的森林实景拍摄,映象气概具有稠密的中世纪色彩,吐暴露一种阴冷的邪恶氛围。导演迈克尔.科恩与女配角都表示出色,分饰父女的萨姆.尼尔和吉尔.贝洛对照之下较弱。

  1. Video
  2. ID                                       : 1
  3. Format                                   : AVC
  4. Format/Info                              : Advanced Video Codec
  5. Format profile                           : [url=/cdn-cgi/l/email-protection][email protected][/url]
  6. Format settings                          : CABAC / 4 Ref Frames
  7. Format settings, CABAC                   : Yes
  8. Format settings, ReFrames                : 4 frames
  9. Codec ID                                 : V_MPEG4/ISO/AVC
  10. Duration                                 : 1 h 40 min
  11. Bit rate mode                            : Variable
  12. Bit rate                                 : 23.0 Mb/s
  13. Maximum bit rate                         : 30.0 Mb/s
  14. Width                                    : 1 920 pixels
  15. Height                                   : 1 080 pixels
  16. Display aspect ratio                     : 16:9
  17. Frame rate mode                          : Constant
  18. Frame rate                               : 23.976 (24000/1001) FPS
  19. Standard                                 : Component
  20. Color space                              : YUV
  21. Chroma subsampling                       : 4:2:0
  22. Bit depth                                : 8 bits
  23. Scan type                                : Progressive
  24. Bits/(Pixel*Frame)                       : 0.463
  25. Stream size                              : 16.1 GiB (82%)
  26. Title                                    : Snow.White.A.Tale.of.Terror.1997.1080p.BluRay.REMUX.AVC.DTS-HD.MA.5.1-FGT
  27. Writing library                          : x264 core 148
  28. Encoding settings                        : cabac=1 / ref=4 / deblock=1:0:0 / analyse=0x3:0x133 / me=umh / subme=9 / psy=1 / psy_rd=1.00:0.00 / mixed_ref=1 / me_range=24 / chroma_me=1 / trellis=2 / 8x8dct=1 / cqm=1 / deadzone=21,11 / fast_pskip=1 / chroma_qp_offset=-2 / threads=34 / lookahead_threads=2 / sliced_threads=0 / slices=4 / nr=0 / decimate=1 / interlaced=0 / minigop=1 / stitchable=1 / constrained_intra=0 / bframes=2 / b_pyramid=0 / b_adapt=2 / b_bias=0 / direct=3 / weightb=1 / open_gop=1 / weightp=1 / keyint=24 / keyint_min=1 / scenecut=40 / intra_refresh=0 / rc_lookahead=24 / rc=2pass / mbtree=1 / bitrate=23000 / ratetol=1.0 / qcomp=0.60 / qpmin=3 / qpmax=69 / qpstep=4 / cplxblur=20.0 / qblur=0.5 / vbv_maxrate=30000 / vbv_bufsize=30000 / nal_hrd=vbr / filler=0 / ip_ratio=1.40 / aq=1:1.00
  29. Language                                 : English
  30. Default                                  : No
  31. Forced                                   : No
  32. Color range                              : Limited
  33. Color primaries                          : BT.709
  34. Transfer characteristics                 : BT.709
  35. Matrix coefficients                      : BT.709

  36. Audio #1
  37. ID                                       : 2
  38. Format                                   : DTS
  39. Format/Info                              : Digital Theater Systems
  40. Format profile                           : MA / Core
  41. Codec ID                                 : A_DTS
  42. Duration                                 : 1 h 40 min
  43. Bit rate mode                            : Variable / Constant
  44. Bit rate                                 : 2 048 kb/s / 1 509 kb/s
  45. Channel(s)                               : 6 channels
  46. Channel positions                        : Front: L C R, Side: L R, LFE
  47. Sampling rate                            : 48.0 kHz
  48. Frame rate                               : 93.750 FPS (512 SPF)
  49. Bit depth                                : 16 bits
  50. Compression mode                         : Lossless / Lossy
  51. Stream size                              : 1.44 GiB (7%)
  52. Title                                    : Snow.White.A.Tale.of.Terror.1997.1080p.BluRay.REMUX.AVC.DTS-HD.MA.5.1-FGT
  53. Language                                 : English
  54. Default                                  : Yes
  55. Forced                                   : No

  56. Audio #2
  57. ID                                       : 3
  58. Format                                   : DTS
  59. Format/Info                              : Digital Theater Systems
  60. Codec ID                                 : A_DTS
  61. Duration                                 : 1 h 40 min
  62. Bit rate mode                            : Constant
  63. Bit rate                                 : 1 509 kb/s
  64. Channel(s)                               : 6 channels
  65. Channel positions                        : Front: L C R, Side: L R, LFE
  66. Sampling rate                            : 48.0 kHz
  67. Frame rate                               : 93.750 FPS (512 SPF)
  68. Bit depth                                : 16 bits
  69. Compression mode                         : Lossy
  70. Stream size                              : 1.06 GiB (5%)
  71. Title                                    : Snow.White.A.Tale.of.Terror.1997.1080p.BluRay.REMUX.AVC.DTS-HD.MA.5.1-FGT
  72. Language                                 : English
  73. Default                                  : No
  74. Forced                                   : No

  75. Audio #3
  76. ID                                       : 4
  77. Format                                   : PCM
  78. Format settings                          : Little / Signed
  79. Codec ID                                 : A_PCM/INT/LIT
  80. Duration                                 : 1 h 40 min
  81. Bit rate mode                            : Constant
  82. Bit rate                                 : 1 536 kb/s
  83. Channel(s)                               : 2 channels
  84. Sampling rate                            : 48.0 kHz
  85. Frame rate                               : 30.000 FPS (1600 SPF)
  86. Bit depth                                : 16 bits
  87. Stream size                              : 1.08 GiB (5%)
  88. Title                                    : Snow.White.A.Tale.of.Terror.1997.1080p.BluRay.REMUX.AVC.DTS-HD.MA.5.1-FGT
  89. Language                                 : English
  90. Default                                  : No
  91. Forced                                   : No

  92. Text
  93. ID                                       : 5
  94. Format                                   : PGS
  95. Muxing mode                              : zlib
  96. Codec ID                                 : S_HDMV/PGS
  97. Codec ID/Info                            : Picture based subtitle format used on BDs/HD-DVDs
  98. Duration                                 : 1 h 34 min
  99. Bit rate                                 : 14.6 kb/s
  100. Count of elements                        : 1192
  101. Stream size                              : 9.86 MiB (0%)
  102. Title                                    : English-PGS
  103. Language                                 : English
  104. Default                                  : Yes
  105. Forced                                   : No

  106. Menu
  107. 00:00:00.000                             : en:Chapter 01
  108. 00:07:53.723                             : en:Chapter 02
  109. 00:18:52.965                             : en:Chapter 03
  110. 00:31:31.681                             : en:Chapter 04
  111. 00:39:25.237                             : en:Chapter 05
  112. 00:49:55.409                             : en:Chapter 06
  113. 00:57:03.586                             : en:Chapter 07
  114. 01:04:59.729                             : en:Chapter 08
  115. 01:13:24.400                             : en:Chapter 09
  116. 01:21:21.293                             : en:Chapter 10
  117. 01:27:48.054                             : en:Chapter 11
  118. 01:36:42.838                             : en:Chapter 12
复制代码

复制代码

白雪公主/白雪魔后 Snow.White.A.Tale.of.Terror.1997.1080p.BluRay.REMUX.AVC.DTS-HD.MA.5.1-FGT 19.72GB-2.png 白雪公主/白雪魔后 Snow.White.A.Tale.of.Terror.1997.1080p.BluRay.REMUX.AVC.DTS-HD.MA.5.1-FGT 19.72GB-3.png 白雪公主/白雪魔后 Snow.White.A.Tale.of.Terror.1997.1080p.BluRay.REMUX.AVC.DTS-HD.MA.5.1-FGT 19.72GB-4.png






回复

使用道具 举报

蓝光币
540
发表于 2018-9-8 06:58:24 | 显示全部楼层
很有个性的白雪公主版本
回复 支持 反对

使用道具 举报

懒得打字嘛,点击右侧快捷回复 【右侧内容,后台自定义】
您需要登录后才可以回帖 登录 | 立即加入

本版积分规则

Archiver|小黑屋| 蓝光电影网 |网站地图

Copyright © 2021 Comsenz Inc. Powered by 蓝光电影网

蓝光电影网

本站内容由用户自主分享和转载自互联网,转载目的在于传递更多信息,并不代表本网赞同其观点和对其真实性负责。

如有侵权、违反国家法律政策行为,请联系我们,我们会第一时间及时清除和处理!

举报反馈邮箱:[email protected]

快速回复 返回顶部 返回列表