找回密码

蓝光电影网

查看: 1140|回复: 2

[动作] 失控天际 Skybound.2017.720p.BluRay.x264-LATENCY 3.28GB

[复制链接]
蓝光币
623
发表于 2018-9-9 22:16:29 | 显示全部楼层 |阅读模式

失控天涯 Skybound.2017.720p.BluRay.x264-LATENCY 3.28GB-1.jpg
◎译  名 失控天涯
◎片  名 Skybound
◎年  代 2015
◎产  地 德国
◎类  别 行动/惊悚
◎语  言 英语
◎上映日期 2017-11-07(美国)
◎豆瓣评分 4.1/10 from 539 users
◎豆瓣链接 https://movie.douban.com/subject/26357520/
◎片  长 82分钟
◎导  演 Alex Tavakoli
◎主  演 斯嘉丽·布莱尼 Scarlett Byrne
      里克·考斯奈特 Rick Cosnett
      蒙坦·瑟贝尔 Morten Suurballe
      加文·斯特豪斯 Gavin Stenhouse

◎简  介

  五个好朋友搭飞机从纽约到洛杉矶,却在中途古怪落空讯号,还在飞翔中的他们,他们发现地上能够发生了庞大灾难,还发现了机上多了一位偷渡客艾瑞克。艾瑞克要他们在燃料用完之前不要下降,究竟究竟是什麽呢?地表上的灾难能否行将漫延到天涯上空?

  1. Video
  2. ID                                       : 1
  3. Format                                   : AVC
  4. Format/Info                              : Advanced Video Codec
  5. Format profile                           : [url=/cdn-cgi/l/email-protection][email protected][/url]
  6. Format settings                          : CABAC / 5 Ref Frames
  7. Format settings, CABAC                   : Yes
  8. Format settings, ReFrames                : 5 frames
  9. Codec ID                                 : V_MPEG4/ISO/AVC
  10. Duration                                 : 1 h 20 min
  11. Bit rate                                 : 4 288 kb/s
  12. Width                                    : 1 280 pixels
  13. Height                                   : 536 pixels
  14. Display aspect ratio                     : 2.40:1
  15. Frame rate mode                          : Constant
  16. Frame rate                               : 24.000 FPS
  17. Color space                              : YUV
  18. Chroma subsampling                       : 4:2:0
  19. Bit depth                                : 8 bits
  20. Scan type                                : Progressive
  21. Bits/(Pixel*Frame)                       : 0.260
  22. Stream size                              : 2.42 GiB (74%)
  23. Writing library                          : x264 core 155 r2901 7d0ff22
  24. Encoding settings                        : cabac=1 / ref=5 / deblock=1:0:0 / analyse=0x3:0x113 / me=umh / subme=8 / psy=1 / psy_rd=1.00:0.00 / mixed_ref=1 / me_range=16 / chroma_me=1 / trellis=2 / 8x8dct=1 / cqm=0 / deadzone=21,11 / fast_pskip=0 / chroma_qp_offset=-2 / threads=17 / lookahead_threads=2 / sliced_threads=0 / nr=0 / decimate=1 / interlaced=0 / bluray_compat=0 / constrained_intra=0 / bframes=3 / b_pyramid=2 / b_adapt=1 / b_bias=0 / direct=3 / weightb=1 / open_gop=0 / weightp=2 / keyint=250 / keyint_min=24 / scenecut=40 / intra_refresh=0 / rc_lookahead=50 / rc=2pass / mbtree=1 / bitrate=4288 / ratetol=1.0 / qcomp=0.60 / qpmin=0 / qpmax=69 / qpstep=4 / cplxblur=20.0 / qblur=0.5 / ip_ratio=1.40 / aq=1:1.00
  25. Default                                  : Yes
  26. Forced                                   : No

  27. Audio
  28. ID                                       : 2
  29. Format                                   : DTS
  30. Format/Info                              : Digital Theater Systems
  31. Codec ID                                 : A_DTS
  32. Duration                                 : 1 h 20 min
  33. Bit rate mode                            : Constant
  34. Bit rate                                 : 1 509 kb/s
  35. Channel(s)                               : 6 channels
  36. Channel positions                        : Front: L C R, Side: L R, LFE
  37. Sampling rate                            : 48.0 kHz
  38. Frame rate                               : 93.750 FPS (512 SPF)
  39. Bit depth                                : 24 bits
  40. Compression mode                         : Lossy
  41. Stream size                              : 874 MiB (26%)
  42. Title                                    : English
  43. Language                                 : English
  44. Default                                  : No
  45. Forced                                   : No

  46. Menu
  47. 00:00:00.000                             : en:00:00:00.000
  48. 00:15:24.000                             : en:00:15:24.000
  49. 00:26:24.542                             : en:00:26:24.542
  50. 00:34:07.208                             : en:00:34:07.208
  51. 00:42:08.167                             : en:00:42:08.167
  52. 00:50:07.250                             : en:00:50:07.250
  53. 00:58:18.500                             : en:00:58:18.500
  54. 01:10:05.792                             : en:01:10:05.792
  55. 01:18:14.750                             : en:01:18:14.750
复制代码

复制代码

失控天涯 Skybound.2017.720p.BluRay.x264-LATENCY 3.28GB-2.png 失控天涯 Skybound.2017.720p.BluRay.x264-LATENCY 3.28GB-3.png 失控天涯 Skybound.2017.720p.BluRay.x264-LATENCY 3.28GB-4.png






回复

使用道具 举报

懒得打字嘛,点击右侧快捷回复 【右侧内容,后台自定义】
您需要登录后才可以回帖 登录 | 立即加入

本版积分规则

Archiver|小黑屋| 蓝光电影网 |网站地图

Copyright © 2021 Comsenz Inc. Powered by 蓝光电影网

蓝光电影网

本站内容由用户自主分享和转载自互联网,转载目的在于传递更多信息,并不代表本网赞同其观点和对其真实性负责。

如有侵权、违反国家法律政策行为,请联系我们,我们会第一时间及时清除和处理!

举报反馈邮箱:[email protected]

快速回复 返回顶部 返回列表