找回密码

蓝光电影网

查看: 2165|回复: 2

[喜剧] 德州电锯杀人狂4/德州电锯杀人狂4 Texas.Chainsaw.Massacre.The.Next.Generation.1994.720p.BluRay.x264-CREEPSHOW 4.36GB

[复制链接]
蓝光币
623
发表于 2018-9-9 22:21:47 | 显示全部楼层 |阅读模式

德州电锯杀人狂4/德州电锯杀人狂4 Texas.Chainsaw.Massacre.The.Next.Generation.1994.720p.BluRay.x264-CREEPSHOW 4.36GB-1.jpg
◎译  名 德州电锯杀人狂4/德州电锯杀人狂4
◎片  名 The Return of the Texas Chainsaw Massacre
◎年  代 1994
◎产  地 美国
◎类  别 笑剧/可骇/惊悚
◎语  言 英语
◎上映日期 1994-08-29
◎豆瓣评分 5.6/10 from 280 users
◎豆瓣链接 https://movie.douban.com/subject/1301702/
◎片  长 95 分钟(uncut version)/Argentina: 90 分钟/Canada: 93 分钟/Sweden: 86 分钟/USA: 86 分钟(cut version)/Finland: 82 分钟(video) (1997)/UK: 83 分钟(DVD)
◎导  演 Kim Henkel
◎主  演 蕾妮·齐薇格 Renée Zellweger
      马修·麦康纳 Matthew McConaughey
      乔·史蒂文斯 Joe Stevens
      Robert Jacks
      Tonie Perensky
      Lisa Marie Newmyer
      John Harrison
      Tyler Shea Cone
      James Gale
      Chris Kilgore
      Vince Brock
      Susan Loughran
      David Laurence
      Grayson Victor Schirmacher
      Jeanette Wiggins

◎简  介

  可骇的电锯杀人魔,任何人都逃离不了他的魔掌!  维莫和他疯狂的家人,一向是以杀戮、熬煎报酬乐。此次,珍妮和她朋友不谨慎堕入维莫的杀戮游戏,在这半夜森林中,他们能成功的逃出吗?

  1. Video
  2. ID                                       : 1
  3. Format                                   : AVC
  4. Format/Info                              : Advanced Video Codec
  5. Format profile                           : [url=/cdn-cgi/l/email-protection][email protected][/url]
  6. Format settings                          : CABAC / 5 Ref Frames
  7. Format settings, CABAC                   : Yes
  8. Format settings, RefFrames               : 5 frames
  9. Codec ID                                 : V_MPEG4/ISO/AVC
  10. Duration                                 : 1 h 27 min
  11. Bit rate                                 : 5 653 kb/s
  12. Width                                    : 1 280 pixels
  13. Height                                   : 720 pixels
  14. Display aspect ratio                     : 16:9
  15. Frame rate mode                          : Constant
  16. Frame rate                               : 23.976 (24000/1001) FPS
  17. Color space                              : YUV
  18. Chroma subsampling                       : 4:2:0
  19. Bit depth                                : 8 bits
  20. Scan type                                : Progressive
  21. Bits/(Pixel*Frame)                       : 0.256
  22. Stream size                              : 3.44 GiB (79%)
  23. Writing library                          : x264 core 155 r2901 7d0ff22
  24. Encoding settings                        : cabac=1 / ref=5 / deblock=1:-1:-1 / analyse=0x3:0x133 / me=umh / subme=8 / psy=1 / psy_rd=1.00:0.15 / mixed_ref=1 / me_range=16 / chroma_me=1 / trellis=2 / 8x8dct=1 / cqm=0 / deadzone=21,11 / fast_pskip=0 / chroma_qp_offset=-3 / threads=12 / lookahead_threads=2 / sliced_threads=0 / nr=0 / decimate=1 / interlaced=0 / bluray_compat=0 / constrained_intra=0 / bframes=3 / b_pyramid=2 / b_adapt=2 / b_bias=0 / direct=3 / weightb=1 / open_gop=0 / weightp=2 / keyint=240 / keyint_min=23 / scenecut=40 / intra_refresh=0 / rc_lookahead=50 / rc=2pass / mbtree=1 / bitrate=5653 / ratetol=1.0 / qcomp=0.60 / qpmin=0 / qpmax=69 / qpstep=4 / cplxblur=20.0 / qblur=0.5 / vbv_maxrate=62500 / vbv_bufsize=78125 / nal_hrd=none / filler=0 / ip_ratio=1.40 / aq=1:1.00
  25. Default                                  : Yes
  26. Forced                                   : No

  27. Audio
  28. ID                                       : 2
  29. Format                                   : DTS
  30. Format/Info                              : Digital Theater Systems
  31. Mode                                     : 16
  32. Format settings, Endianness              : Big
  33. Codec ID                                 : A_DTS
  34. Duration                                 : 1 h 27 min
  35. Bit rate mode                            : Constant
  36. Bit rate                                 : 1 509 kb/s
  37. Channel(s)                               : 2 channels
  38. Channel positions                        : Front: L R
  39. Sampling rate                            : 48.0 kHz
  40. Frame rate                               : 93.750 FPS (512 SPF)
  41. Bit depth                                : 24 bits
  42. Compression mode                         : Lossy
  43. Stream size                              : 941 MiB (21%)
  44. Language                                 : English
  45. Default                                  : Yes
  46. Forced                                   : No

  47. Menu
  48. 00:00:00.000                             : en:00:00:00.000
  49. 00:14:19.734                             : en:00:14:19.734
  50. 00:25:24.982                             : en:00:25:24.982
  51. 00:33:32.969                             : en:00:33:32.969
  52. 00:44:36.757                             : en:00:44:36.757
  53. 00:54:21.717                             : en:00:54:21.717
  54. 01:04:55.183                             : en:01:04:55.183
  55. 01:14:40.434                             : en:01:14:40.434
复制代码

复制代码

德州电锯杀人狂4/德州电锯杀人狂4 Texas.Chainsaw.Massacre.The.Next.Generation.1994.720p.BluRay.x264-CREEPSHOW 4.36GB-2.jpg






回复

使用道具 举报

懒得打字嘛,点击右侧快捷回复 【右侧内容,后台自定义】
您需要登录后才可以回帖 登录 | 立即加入

本版积分规则

Archiver|小黑屋| 蓝光电影网 |网站地图

Copyright © 2021 Comsenz Inc. Powered by 蓝光电影网

蓝光电影网

本站内容由用户自主分享和转载自互联网,转载目的在于传递更多信息,并不代表本网赞同其观点和对其真实性负责。

如有侵权、违反国家法律政策行为,请联系我们,我们会第一时间及时清除和处理!

举报反馈邮箱:[email protected]

快速回复 返回顶部 返回列表