找回密码

蓝光电影网

查看: 581|回复: 1

[喜剧] 浪荡儿/维蒂洛尼 I.Vitelloni.1953.720p.BluRay.x264-GHOULS 4.37GB

[复制链接]
蓝光币
623
发表于 2018-9-9 22:22:26 | 显示全部楼层 |阅读模式

游荡儿/维蒂洛尼 I.Vitelloni.1953.720p.BluRay.x264-GHOULS 4.37GB-1.jpg
◎译  名 游荡儿/维蒂洛尼/流浪汉/青春群像
◎片  名 I vitelloni
◎年  代 1953
◎产  地 意大利/法国
◎类  别 笑剧/剧情
◎语  言 意大利语
◎上映日期 1953-08-26(威尼斯电影节)/1953-09-17(意大利)
◎豆瓣评分 8.5/10 from 2,628 users
◎豆瓣链接 https://movie.douban.com/subject/1300779/
◎片  长 101分钟(阿根廷)/100分钟(德国)/104分钟(美国)/107分钟(意大利)
◎导  演 费德里科·费里尼 Federico Fellini
◎主  演 弗朗科·英特朗吉 Franco Interlenghi
      阿尔伯托·索迪 Alberto Sordi
      佛朗哥·法布里齐 Franco Fabrizi
      里奥普尔多·特里斯特 Leopoldo Trieste
      Riccardo Fellini
      莉奥诺拉·罗芙 Leonora Ruffo
      让·布罗沙尔 Jean Brochard
      Claude Farell

◎简  介

  影片的仆人公是年近30岁的5位年轻人,他们整天游手好闲,热衷于恶作剧并沉溺于梦幻般不切现实的计划里。其中最年长的浮士德让最年少的摩拉德的妹妹桑德拉怀了孕,基于义务心及四周人的力劝而结了婚。浮士德在一家古玩店工作,但由于恶习不改诡计蛊惑店东的妻子而被解雇。一天,桑德拉得知浮士德带着一位舞娘到一家廉价的旅店留宿,因而第二天她带着孩子离家出走;狼狈的浮士德第一次感应桑德拉的重要性。因而和她的兄弟四人拼命寻觅桑德拉的着落,终究找到桑德拉的浮士德一边遭到父亲的痛斥;一边哀告桑德拉的谅解。见到二人重建旧好的摩拉德在越日早晨不辞而别,踏上了自己的旅程。

◎获奖情况

  第30届奥斯卡金像奖  (1958)
  最好原创剧本(提名) 图里奥·皮内利 / 恩尼奥·弗拉亚诺 / 费德里科·费里尼

  第14届威尼斯电影节  (1953)
  主比赛单元 金狮奖 (提名) 费德里科·费里尼
  银狮奖 最好影片 费德里科·费里尼

  1. Video
  2. ID                                       : 1
  3. Format                                   : AVC
  4. Format/Info                              : Advanced Video Codec
  5. Format profile                           : [url=/cdn-cgi/l/email-protection][email protected][/url]
  6. Format settings                          : CABAC / 5 Ref Frames
  7. Format settings, CABAC                   : Yes
  8. Format settings, RefFrames               : 5 frames
  9. Codec ID                                 : V_MPEG4/ISO/AVC
  10. Duration                                 : 1 h 42 min
  11. Bit rate                                 : 5 441 kb/s
  12. Width                                    : 960 pixels
  13. Height                                   : 720 pixels
  14. Display aspect ratio                     : 4:3
  15. Frame rate mode                          : Constant
  16. Frame rate                               : 25.000 FPS
  17. Color space                              : YUV
  18. Chroma subsampling                       : 4:2:0
  19. Bit depth                                : 8 bits
  20. Scan type                                : Progressive
  21. Bits/(Pixel*Frame)                       : 0.315
  22. Stream size                              : 3.91 GiB (89%)
  23. Writing library                          : x264 core 155 r2901 7d0ff22
  24. Encoding settings                        : cabac=1 / ref=5 / deblock=1:-3:-3 / analyse=0x3:0x133 / me=umh / subme=8 / psy=1 / psy_rd=1.00:0.00 / mixed_ref=1 / me_range=16 / chroma_me=1 / trellis=1 / 8x8dct=1 / cqm=0 / deadzone=21,11 / fast_pskip=0 / chroma_qp_offset=-2 / threads=22 / lookahead_threads=3 / sliced_threads=0 / nr=0 / decimate=1 / interlaced=0 / bluray_compat=0 / constrained_intra=0 / bframes=3 / b_pyramid=2 / b_adapt=1 / b_bias=0 / direct=3 / weightb=1 / open_gop=0 / weightp=2 / keyint=250 / keyint_min=25 / scenecut=40 / intra_refresh=0 / rc_lookahead=50 / rc=2pass / mbtree=1 / bitrate=5441 / ratetol=1.0 / qcomp=0.60 / qpmin=0 / qpmax=69 / qpstep=4 / cplxblur=20.0 / qblur=0.5 / vbv_maxrate=62500 / vbv_bufsize=78125 / nal_hrd=none / filler=0 / ip_ratio=1.40 / aq=1:1.00
  25. Default                                  : Yes
  26. Forced                                   : No

  27. Audio
  28. ID                                       : 2
  29. Format                                   : AC-3
  30. Format/Info                              : Audio Coding 3
  31. Format settings, Endianness              : Big
  32. Codec ID                                 : A_AC3
  33. Duration                                 : 1 h 42 min
  34. Bit rate mode                            : Constant
  35. Bit rate                                 : 640 kb/s
  36. Channel(s)                               : 2 channels
  37. Channel positions                        : Front: L R
  38. Sampling rate                            : 48.0 kHz
  39. Frame rate                               : 31.250 FPS (1536 SPF)
  40. Bit depth                                : 16 bits
  41. Compression mode                         : Lossy
  42. Stream size                              : 471 MiB (11%)
  43. Language                                 : Italian
  44. Service kind                             : Complete Main
  45. Default                                  : Yes
  46. Forced                                   : No

  47. Text
  48. ID                                       : 3
  49. Format                                   : UTF-8
  50. Codec ID                                 : S_TEXT/UTF8
  51. Codec ID/Info                            : UTF-8 Plain Text
  52. Duration                                 : 1 h 42 min
  53. Bit rate                                 : 55 b/s
  54. Count of elements                        : 1261
  55. Stream size                              : 42.0 KiB (0%)
  56. Language                                 : English
  57. Default                                  : Yes
  58. Forced                                   : No

  59. Menu
  60. 00:00:00.000                             : en:00:00:00.000
  61. 00:08:59.600                             : en:00:08:59.600
  62. 00:16:06.200                             : en:00:16:06.200
  63. 00:23:55.920                             : en:00:23:55.920
  64. 00:32:14.200                             : en:00:32:14.200
  65. 00:41:13.400                             : en:00:41:13.400
  66. 00:52:23.920                             : en:00:52:23.920
  67. 00:55:12.680                             : en:00:55:12.680
  68. 01:05:36.320                             : en:01:05:36.320
  69. 01:11:33.200                             : en:01:11:33.200
  70. 01:20:15.640                             : en:01:20:15.640
  71. 01:30:48.720                             : en:01:30:48.720
  72. 01:37:18.040                             : en:01:37:18.040
复制代码

复制代码

游荡儿/维蒂洛尼 I.Vitelloni.1953.720p.BluRay.x264-GHOULS 4.37GB-2.jpg






回复

使用道具 举报

懒得打字嘛,点击右侧快捷回复 【右侧内容,后台自定义】
您需要登录后才可以回帖 登录 | 立即加入

本版积分规则

Archiver|小黑屋| 蓝光电影网 |网站地图

Copyright © 2021 Comsenz Inc. Powered by 蓝光电影网

蓝光电影网

本站内容由用户自主分享和转载自互联网,转载目的在于传递更多信息,并不代表本网赞同其观点和对其真实性负责。

如有侵权、违反国家法律政策行为,请联系我们,我们会第一时间及时清除和处理!

举报反馈邮箱:[email protected]

快速回复 返回顶部 返回列表