找回密码

蓝光电影网

查看: 1091|回复: 1

[动作] 少林足球 Shaolin.Soccer.2001.US.Version.DUBBED.720p.BluRay.x264-CLASSiC 4.37GB

[复制链接]
蓝光币
623
发表于 2018-9-9 22:23:53 | 显示全部楼层 |阅读模式

少林足球 Shaolin.Soccer.2001.US.Version.DUBBED.720p.BluRay.x264-CLASSiC 4.37GB-1.jpg
◎译  名 ShaolinSoccer
◎片  名 少林足球
◎年  代 2001
◎产  地 香港/中国大陆
◎类  别 行动/笑剧/活动
◎语  言 粤语
◎上映日期 2001-07-12(香港)
◎豆瓣评分 7.5/10 from 176,741 users
◎豆瓣链接 https://movie.douban.com/subject/1297747/
◎片  长 113分钟/102分钟(香港)/87分钟(美国)
◎导  演 周星驰 Stephen Chow
◎主  演 周星驰 Stephen Chow
      赵薇 Wei Zhao
      吴孟达 Man Tat Ng
      谢贤 Yin Tse
      莫文蔚 Karen Mok
      张柏芝 Cecilia Cheung
      黄一飞 Yut Fei Wong
      田启文 Kai Man Tin
      林子聪 Chi Chung Lam
      陈国坤 Kwok-Kwan Chan
      莫美林 Meilin Mo
      林子善 Lam Tse Sin
      李卉 Hui Li
      谷德昭 Vincent Kok

◎简  介

  二十年前有“黄金右脚”之称,但因一场被师兄强雄设想谗谄的角逐而断了右脚自此臭名昭著的明锋(吴孟达)偶然熟悉了有惊人脚力的星(周星驰),压服了对方练习足球加入未几会举行的全国超级杯足球大赛,星找来曾一同在少林寺习武的一帮师兄弟,并叫醒了他们快被平淡生活消磨光了的潜伏斗志,众人经过历练终结成名副实在的“少林队”。阿梅(赵薇)以太极功夫制造馒头,令星非常佩服与之成了好友,但阿梅不但当星为好友,只因样貌奇丑而自大一向不敢表露情意。
  “少林队”在全国超级杯足球大赛上屡战屡捷杀进决赛,不想卫冕之战对手竟是强雄(谢贤)所率领的“魔鬼队”,同二十年前一样,强雄再耍阴招令“少林队”节节溃退,关键时辰,阿梅现身。

◎获奖情况

  第38届台北金马影展  (2001)
  金马奖 最好行动设想(提名) 程小东
  金马奖 最好剪辑(提名) 奚杰伟
  金马奖 最好视觉结果

  第21届香港电影金像奖  (2002)
  最好电影 杨国辉
  最好导演 周星驰
  最好编剧(提名) 曾瑾昌 / 周星驰
  最好男配角 周星驰
  最好男配角 黄一飞
  最好摄影(提名) 邝庭和 / 关柏煊
  最好剪接(提名) 奚杰伟
  最好打扮外型设想(提名) 蔡彦雯
  最好行动设想(提名) 程小东
  最好原创电影音乐(提名) 黄精华
  最好原创电影歌曲(提名) 刘德华 / 陈国梁
  最好声响结果 曾景祥
  最好视觉结果 杜启荣 / 钟智行 / 吴业宏 / 罗伟豪
  精采青年导演 周星驰

  第2届华语电影传媒大奖  (2002)
  最好男演员(提名) 周星驰
  最好电影(提名)
  最好女配角(提名) 赵薇

  1. Video
  2. ID                                       : 1
  3. Format                                   : AVC
  4. Format/Info                              : Advanced Video Codec
  5. Format profile                           : [url=/cdn-cgi/l/email-protection][email protected][/url]
  6. Format settings                          : CABAC / 5 Ref Frames
  7. Format settings, CABAC                   : Yes
  8. Format settings, RefFrames               : 5 frames
  9. Codec ID                                 : V_MPEG4/ISO/AVC
  10. Duration                                 : 1 h 26 min
  11. Bit rate                                 : 6 457 kb/s
  12. Width                                    : 1 280 pixels
  13. Height                                   : 720 pixels
  14. Display aspect ratio                     : 16:9
  15. Frame rate mode                          : Constant
  16. Frame rate                               : 23.976 FPS
  17. Color space                              : YUV
  18. Chroma subsampling                       : 4:2:0
  19. Bit depth                                : 8 bits
  20. Scan type                                : Progressive
  21. Bits/(Pixel*Frame)                       : 0.292
  22. Stream size                              : 3.82 GiB (87%)
  23. Writing library                          : x264 core 152 r2851 ba24899
  24. Encoding settings                        : cabac=1 / ref=5 / deblock=1:0:0 / analyse=0x3:0x133 / me=tesa / subme=10 / psy=1 / psy_rd=1.00:0.00 / mixed_ref=1 / me_range=24 / chroma_me=1 / trellis=2 / 8x8dct=1 / cqm=0 / deadzone=21,11 / fast_pskip=0 / chroma_qp_offset=-2 / threads=12 / lookahead_threads=2 / sliced_threads=0 / nr=0 / decimate=1 / interlaced=0 / bluray_compat=0 / constrained_intra=0 / bframes=8 / b_pyramid=2 / b_adapt=2 / b_bias=0 / direct=3 / weightb=1 / open_gop=0 / weightp=2 / keyint=250 / keyint_min=23 / scenecut=40 / intra_refresh=0 / rc_lookahead=60 / rc=2pass / mbtree=1 / bitrate=6457 / ratetol=1.0 / qcomp=0.60 / qpmin=0 / qpmax=69 / qpstep=4 / cplxblur=20.0 / qblur=0.5 / ip_ratio=1.40 / aq=1:1.00
  25. Language                                 : English
  26. Default                                  : Yes
  27. Forced                                   : No

  28. Audio
  29. ID                                       : 2
  30. Format                                   : DTS
  31. Format/Info                              : Digital Theater Systems
  32. Mode                                     : 16
  33. Format settings, Endianness              : Big
  34. Codec ID                                 : A_DTS
  35. Duration                                 : 1 h 26 min
  36. Bit rate mode                            : Constant
  37. Bit rate                                 : 768 kb/s
  38. Channel(s)                               : 6 channels
  39. Channel positions                        : Front: L C R, Side: L R, LFE
  40. Sampling rate                            : 48.0 kHz
  41. Frame rate                               : 93.750 FPS (512 SPF)
  42. Bit depth                                : 24 bits
  43. Compression mode                         : Lossy
  44. Stream size                              : 476 MiB (11%)
  45. Language                                 : English
  46. Default                                  : Yes
  47. Forced                                   : No

  48. Menu
  49. 00:00:00.000                             : en:00:00:00.000
  50. 00:05:10.644                             : en:00:05:10.644
  51. 00:14:05.970                             : en:00:14:05.970
  52. 00:18:49.170                             : en:00:18:49.170
  53. 00:25:31.488                             : en:00:25:31.488
  54. 00:32:13.431                             : en:00:32:13.431
  55. 00:37:57.442                             : en:00:37:57.442
  56. 00:46:18.985                             : en:00:46:18.985
  57. 00:55:48.637                             : en:00:55:48.637
  58. 01:02:04.596                             : en:01:02:04.596
  59. 01:09:19.739                             : en:01:09:19.739
  60. 01:19:04.490                             : en:01:19:04.490
复制代码

复制代码

少林足球 Shaolin.Soccer.2001.US.Version.DUBBED.720p.BluRay.x264-CLASSiC 4.37GB-2.jpg






回复

使用道具 举报

蓝光币
9
发表于 2018-9-11 18:53:57 | 显示全部楼层
好有名的老片!
回复 支持 反对

使用道具 举报

懒得打字嘛,点击右侧快捷回复 【右侧内容,后台自定义】
您需要登录后才可以回帖 登录 | 立即加入

本版积分规则

Archiver|小黑屋| 蓝光电影网 |网站地图

Copyright © 2021 Comsenz Inc. Powered by 蓝光电影网

蓝光电影网

本站内容由用户自主分享和转载自互联网,转载目的在于传递更多信息,并不代表本网赞同其观点和对其真实性负责。

如有侵权、违反国家法律政策行为,请联系我们,我们会第一时间及时清除和处理!

举报反馈邮箱:[email protected]

快速回复 返回顶部 返回列表