找回密码

蓝光电影网

查看: 814|回复: 1

[剧情] 吧女生涯原是梦/来去自由的灰姑娘 Cinderella.Liberty.1973.720p.BluRay.x264-PSYCHD 6.57GB

[复制链接]
蓝光币
623
发表于 2018-9-9 22:24:37 | 显示全部楼层 |阅读模式

吧女生活原是梦/来去自在的灰姑娘 Cinderella.Liberty.1973.720p.BluRay.x264-PSYCHD 6.57GB-1.jpg
◎译  名 吧女生活原是梦/来去自在的灰姑娘
◎片  名 Cinderella Liberty
◎年  代 1973
◎产  地 美国
◎类  别 剧情/恋爱
◎语  言 英语
◎上映日期 1973-12-18
◎豆瓣评分 /10 from 0 users
◎豆瓣链接 https://movie.douban.com/subject/1294755/
◎片  长 117 分钟
◎导  演 马克·雷戴尔 Mark Rydell
◎主  演 玛莎·马森 Marsha Mason
      詹姆斯·凯恩 James Caan

◎简  介

  一个孤独的水兵海员爱上了一个妓女,在他的退役记录被丧失的时代,他成为了她儿子的代理父亲。

◎获奖情况

  第46届奥斯卡金像奖  (1974)
  最好女配角(提名) 玛莎·马森
  剧情片最好原创配乐(提名) 阿迪纳·波特
  最好原创歌曲(提名) 保罗·威廉姆斯 / 约翰·威廉姆斯

  1. Video
  2. ID                                       : 1
  3. Format                                   : AVC
  4. Format/Info                              : Advanced Video Codec
  5. Format profile                           : [url=/cdn-cgi/l/email-protection][email protected][/url]
  6. Format settings                          : CABAC / 5 Ref Frames
  7. Format settings, CABAC                   : Yes
  8. Format settings, RefFrames               : 5 frames
  9. Codec ID                                 : V_MPEG4/ISO/AVC
  10. Duration                                 : 1 h 56 min
  11. Bit rate                                 : 6 533 kb/s
  12. Width                                    : 1 280 pixels
  13. Height                                   : 544 pixels
  14. Display aspect ratio                     : 2.35:1
  15. Frame rate mode                          : Constant
  16. Frame rate                               : 23.976 (24000/1001) FPS
  17. Color space                              : YUV
  18. Chroma subsampling                       : 4:2:0
  19. Bit depth                                : 8 bits
  20. Scan type                                : Progressive
  21. Bits/(Pixel*Frame)                       : 0.391
  22. Stream size                              : 5.20 GiB (79%)
  23. Writing library                          : x264 core 157 r2932 303c484
  24. Encoding settings                        : cabac=1 / ref=5 / deblock=1:-3:-3 / analyse=0x3:0x113 / me=umh / subme=8 / psy=1 / psy_rd=1.10:0.00 / mixed_ref=1 / me_range=24 / chroma_me=1 / trellis=2 / 8x8dct=1 / cqm=0 / deadzone=21,11 / fast_pskip=1 / chroma_qp_offset=-2 / threads=17 / lookahead_threads=2 / sliced_threads=0 / nr=0 / decimate=1 / interlaced=0 / bluray_compat=0 / constrained_intra=0 / bframes=3 / b_pyramid=2 / b_adapt=2 / b_bias=0 / direct=3 / weightb=1 / open_gop=0 / weightp=2 / keyint=240 / keyint_min=24 / scenecut=40 / intra_refresh=0 / rc_lookahead=50 / rc=2pass / mbtree=1 / bitrate=6533 / ratetol=1.0 / qcomp=0.60 / qpmin=0 / qpmax=69 / qpstep=4 / cplxblur=20.0 / qblur=0.5 / ip_ratio=1.40 / aq=3:0.75
  25. Default                                  : Yes
  26. Forced                                   : No
  27. Statistics Tags Issue                    : no_variable_data 1970-01-01 00:00:00 / no_variable_data 2010-02-22 21:41:29
  28. FromStats_BitRate                        : 6533647
  29. FromStats_Duration                       : 01:56:43.038000000
  30. FromStats_FrameCount                     : 167905
  31. FromStats_StreamSize                     : 5719423132

  32. Audio
  33. ID                                       : 2
  34. Format                                   : DTS
  35. Format/Info                              : Digital Theater Systems
  36. Mode                                     : 16
  37. Format settings, Endianness              : Big
  38. Codec ID                                 : A_DTS
  39. Duration                                 : 1 h 56 min
  40. Bit rate mode                            : Constant
  41. Bit rate                                 : 1 509 kb/s
  42. Channel(s)                               : 2 channels
  43. Channel positions                        : Front: L R
  44. Sampling rate                            : 48.0 kHz
  45. Frame rate                               : 93.750 FPS (512 SPF)
  46. Bit depth                                : 24 bits
  47. Compression mode                         : Lossy
  48. Stream size                              : 1.23 GiB (19%)
  49. Language                                 : English
  50. Default                                  : Yes
  51. Forced                                   : No
  52. Statistics Tags Issue                    : no_variable_data 1970-01-01 00:00:00 / no_variable_data 2010-02-22 21:41:29
  53. FromStats_BitRate                        : 1508999
  54. FromStats_Duration                       : 01:56:43.019000000
  55. FromStats_FrameCount                     : 656533
  56. FromStats_StreamSize                     : 1320944396

  57. Text #1
  58. ID                                       : 3
  59. Format                                   : UTF-8
  60. Codec ID                                 : S_TEXT/UTF8
  61. Codec ID/Info                            : UTF-8 Plain Text
  62. Language                                 : English
  63. Default                                  : No
  64. Forced                                   : No
  65. Statistics Tags Issue                    : no_variable_data 1970-01-01 00:00:00 / no_variable_data 2010-02-22 21:41:29
  66. FromStats_BitRate                        : 66
  67. FromStats_Duration                       : 01:54:26.735000000
  68. FromStats_FrameCount                     : 1610
  69. FromStats_StreamSize                     : 56834

  70. Text #2
  71. ID                                       : 4
  72. Format                                   : UTF-8
  73. Codec ID                                 : S_TEXT/UTF8
  74. Codec ID/Info                            : UTF-8 Plain Text
  75. Title                                    : SDH
  76. Language                                 : English
  77. Default                                  : No
  78. Forced                                   : No
  79. Statistics Tags Issue                    : no_variable_data 1970-01-01 00:00:00 / no_variable_data 2010-02-22 21:41:29
  80. FromStats_BitRate                        : 71
  81. FromStats_Duration                       : 01:55:01.353000000
  82. FromStats_FrameCount                     : 1729
  83. FromStats_StreamSize                     : 61541

  84. Menu
  85. 00:00:00.000                             : en:00:00:00.000
  86. 00:06:07.492                             : en:00:06:07.492
  87. 00:09:30.570                             : en:00:09:30.570
  88. 00:15:01.067                             : en:00:15:01.067
  89. 00:18:57.928                             : en:00:18:57.928
  90. 00:24:12.910                             : en:00:24:12.910
  91. 00:28:52.814                             : en:00:28:52.814
  92. 00:35:14.362                             : en:00:35:14.362
  93. 00:39:48.261                             : en:00:39:48.261
  94. 00:45:01.532                             : en:00:45:01.532
  95. 00:49:29.258                             : en:00:49:29.258
  96. 00:55:10.015                             : en:00:55:10.015
  97. 00:59:30.275                             : en:00:59:30.275
  98. 01:03:53.705                             : en:01:03:53.705
  99. 01:08:08.459                             : en:01:08:08.459
  100. 01:13:31.699                             : en:01:13:31.699
  101. 01:20:31.243                             : en:01:20:31.243
  102. 01:23:50.150                             : en:01:23:50.150
  103. 01:28:33.058                             : en:01:28:33.058
  104. 01:34:13.481                             : en:01:34:13.481
  105. 01:37:30.053                             : en:01:37:30.053
  106. 01:41:49.937                             : en:01:41:49.937
  107. 01:47:46.168                             : en:01:47:46.168
  108. 01:52:34.456                             : en:01:52:34.456
复制代码

复制代码

吧女生活原是梦/来去自在的灰姑娘 Cinderella.Liberty.1973.720p.BluRay.x264-PSYCHD 6.57GB-2.jpg






回复

使用道具 举报

懒得打字嘛,点击右侧快捷回复 【右侧内容,后台自定义】
您需要登录后才可以回帖 登录 | 立即加入

本版积分规则

Archiver|小黑屋| 蓝光电影网 |网站地图

Copyright © 2021 Comsenz Inc. Powered by 蓝光电影网

蓝光电影网

本站内容由用户自主分享和转载自互联网,转载目的在于传递更多信息,并不代表本网赞同其观点和对其真实性负责。

如有侵权、违反国家法律政策行为,请联系我们,我们会第一时间及时清除和处理!

举报反馈邮箱:[email protected]

快速回复 返回顶部 返回列表