找回密码

蓝光电影网

查看: 1259|回复: 3

[冒险] 新外星人/宇宙精灵 Mac.and.Me.1988.720p.BluRay.x264-SADPANDA 4.37GB

[复制链接]
蓝光币
623
发表于 2018-9-9 22:25:43 | 显示全部楼层 |阅读模式

新外星人/宇宙精灵 Mac.and.Me.1988.720p.BluRay.x264-SADPANDA 4.37GB-1.jpg
◎译  名 新外星人/宇宙精灵/外星小精灵
◎片  名 Mac and Me
◎年  代 1988
◎产  地 美国
◎类  别 冒险/家庭/奇异/科幻
◎语  言 英语
◎上映日期 1988-08-12
◎豆瓣评分 7.9/10 from 237 users
◎豆瓣链接 https://movie.douban.com/subject/1305636/
◎片  长 95 分钟
◎导  演 斯图尔特 拉菲尔 (Stewart Raffill)
◎主  演 克斯汀·埃伯索尔 Christine Ebersole
      Jonathan Ward
      Tina Caspary
      Lauren Stanley
      Jade Calegory

◎简  介

  一个外星人家庭在不幸意外地被美国探测太空船携回地球,他们在一阵紊乱中冲出太空总署逃向沙漠,但小外星人麦克与家人失散,溜上了不良于行的艾瑞克家人的观光车而跟著车到了内华达州。麦克在一次意外事务中救了艾瑞克以后,与艾瑞克兄弟和邻人女童黛比等人结为好友,并要求他们辅佐搜救在沙漠中病笃的家人。艾瑞克一行人终究在麦克的指引下找到他的家人并带他们回家,却不意在超级市场中形成纷扰,警方及尾随而来的科学家们诡计捉住他们而激发了冲击…

  1. Video
  2. ID                                       : 1
  3. Format                                   : AVC
  4. Format/Info                              : Advanced Video Codec
  5. Format profile                           : [url=/cdn-cgi/l/email-protection][email protected][/url]
  6. Format settings                          : CABAC / 5 Ref Frames
  7. Format settings, CABAC                   : Yes
  8. Format settings, RefFrames               : 5 frames
  9. Codec ID                                 : V_MPEG4/ISO/AVC
  10. Duration                                 : 1 h 39 min
  11. Bit rate                                 : 5 686 kb/s
  12. Width                                    : 1 280 pixels
  13. Height                                   : 696 pixels
  14. Display aspect ratio                     : 1.85:1
  15. Frame rate mode                          : Constant
  16. Frame rate                               : 23.976 (24000/1001) FPS
  17. Color space                              : YUV
  18. Chroma subsampling                       : 4:2:0
  19. Bit depth                                : 8 bits
  20. Scan type                                : Progressive
  21. Bits/(Pixel*Frame)                       : 0.266
  22. Stream size                              : 3.94 GiB (90%)
  23. Writing library                          : x264 core 155 r2901 7d0ff22
  24. Encoding settings                        : cabac=1 / ref=5 / deblock=1:-3:-3 / analyse=0x3:0x113 / me=umh / subme=8 / psy=1 / psy_rd=1.00:0.25 / mixed_ref=1 / me_range=24 / chroma_me=1 / trellis=1 / 8x8dct=1 / cqm=0 / deadzone=21,11 / fast_pskip=1 / chroma_qp_offset=-4 / threads=22 / lookahead_threads=3 / sliced_threads=0 / nr=0 / decimate=1 / interlaced=0 / bluray_compat=0 / constrained_intra=0 / bframes=3 / b_pyramid=2 / b_adapt=1 / b_bias=0 / direct=3 / weightb=1 / open_gop=0 / weightp=2 / keyint=240 / keyint_min=24 / scenecut=40 / intra_refresh=0 / rc_lookahead=50 / rc=2pass / mbtree=1 / bitrate=5686 / ratetol=1.0 / qcomp=0.60 / qpmin=0 / qpmax=69 / qpstep=4 / cplxblur=20.0 / qblur=0.5 / ip_ratio=1.40 / aq=1:0.75
  25. Default                                  : Yes
  26. Forced                                   : No

  27. Audio
  28. ID                                       : 2
  29. Format                                   : FLAC
  30. Format/Info                              : Free Lossless Audio Codec
  31. Codec ID                                 : A_FLAC
  32. Duration                                 : 1 h 39 min
  33. Bit rate mode                            : Variable
  34. Bit rate                                 : 600 kb/s
  35. Channel(s)                               : 2 channels
  36. Channel positions                        : Front: L R
  37. Sampling rate                            : 48.0 kHz
  38. Frame rate                               : 11.719 FPS (4096 SPF)
  39. Bit depth                                : 16 bits
  40. Stream size                              : 426 MiB (10%)
  41. Writing library                          : libFLAC 1.2.1 (UTC 2007-09-17)
  42. Language                                 : English
  43. Default                                  : Yes
  44. Forced                                   : No

  45. Menu
  46. 00:00:00.000                             : en:00:00:00.000
  47. 00:06:11.663                             : en:00:06:11.663
  48. 00:14:11.768                             : en:00:14:11.768
  49. 00:24:43.399                             : en:00:24:43.399
  50. 00:31:10.911                             : en:00:31:10.911
  51. 00:38:29.682                             : en:00:38:29.682
  52. 00:45:38.569                             : en:00:45:38.569
  53. 00:57:04.087                             : en:00:57:04.087
  54. 01:07:47.772                             : en:01:07:47.772
  55. 01:14:28.631                             : en:01:14:28.631
  56. 01:22:32.781                             : en:01:22:32.781
  57. 01:34:11.688                             : en:01:34:11.688
复制代码

复制代码

新外星人/宇宙精灵 Mac.and.Me.1988.720p.BluRay.x264-SADPANDA 4.37GB-2.jpg




回复

使用道具 举报

懒得打字嘛,点击右侧快捷回复 【右侧内容,后台自定义】
您需要登录后才可以回帖 登录 | 立即加入

本版积分规则

Archiver|小黑屋| 蓝光电影网 |网站地图

Copyright © 2021 Comsenz Inc. Powered by 蓝光电影网

蓝光电影网

本站内容由用户自主分享和转载自互联网,转载目的在于传递更多信息,并不代表本网赞同其观点和对其真实性负责。

如有侵权、违反国家法律政策行为,请联系我们,我们会第一时间及时清除和处理!

举报反馈邮箱:[email protected]

快速回复 返回顶部 返回列表