找回密码

蓝光电影网

查看: 1033|回复: 5

遗传厄运/宿怨 Hereditary.2018.2160p.BluRay.REMUX.HEVC.DTS-HD.MA.5.1-FGT 69.59GB

[复制链接]
蓝光币
623
发表于 2018-9-9 23:04:44 | 显示全部楼层 |阅读模式


◎译  名 遗传恶运/宿怨(台)/祖孽(港)/恶运遗传
◎片  名 Hereditary
◎年  代 2018
◎产  地 美国
◎类  别 悬疑/惊悚/可骇
◎语  言 英语
◎上映日期 2018-01-21(圣丹斯电影节)/2018-06-08(美国)
◎豆瓣评分 7.2/10 from 33,956 users
◎豆瓣链接 https://movie.douban.com/subject/27621727/
◎片  长 127分钟
◎导  演 阿里·艾斯特 Ari Aster
◎主  演 亚历克斯·沃尔夫 Alex Wolff
      加布里埃尔·伯恩 Gabriel Byrne
      托妮·科莱特 Toni Collette
      米莉·夏普洛 Milly Shapiro
      克里斯蒂·萨默海斯 Christy Summerhays
      摩根·伦德 Morgan Lund
      马洛里·贝克特尔 Mallory Bechtel
      杰克·布朗 Jake Brown
      布赖恩·拉谢尔 BriAnn Rachele
      海蒂·门德兹 Heidi Méndez
      莫伊塞斯 L·托瓦 Moises L. Tovar
      贾罗德·菲利普斯 Jarrod Phillips
      安·唐德 Ann Dowd
      布罗克·麦金尼 Brock McKinney
      扎克瑞·亚瑟 Zachary Arthur
      奥斯丁·R·格兰特 Austin R. Grant

◎简  介

  安妮(托妮·科莱特 Toni Collette 饰)和丈夫史蒂文(加布里埃尔·伯恩 Gabriel Byrne 饰)带着大儿子皮特(亚历克斯·沃尔夫 Alex Wolff 饰)生活,他们的小女儿查理(米莉·夏普洛 Milly Shapiro 饰)则交由安妮的母亲艾伦抚养 。现实上,安妮和母亲之间的关系非常冷淡,艾伦归天后,查理重新回到了怙恃的身旁。
  自从查理回家以后,家里便起头持续不断的发生诡异的事务。奥秘的图腾,陌生的姓名以及神出鬼没的不速之客让这个家庭被覆盖在压制的氛围当中。由于皮特的疏忽,一场车祸夺走了查理的人命,查理的死加速了各家庭成员之间的割裂,在安妮最失望的日子里,一个名叫乔安(安·唐德 Ann Dowd 饰)的女人出现在了她的身旁,她宣称自己具有可以呼唤灵魂的特异功用。

  1. Video #1
  2. ID                                       : 1
  3. Format                                   : HEVC
  4. Format/Info                              : High Efficiency Video Coding
  5. Commercial name                          : HDR10
  6. Format profile                           : Main [url=/cdn-cgi/l/email-protection][email protected][/url]@High
  7. Codec ID                                 : V_MPEGH/ISO/HEVC
  8. Duration                                 : 2 h 7 min
  9. Bit rate                                 : 67.6 Mb/s
  10. Width                                    : 3 840 pixels
  11. Height                                   : 2 160 pixels
  12. Display aspect ratio                     : 16:9
  13. Frame rate mode                          : Constant
  14. Frame rate                               : 23.976 (24000/1001) FPS
  15. Color space                              : YUV
  16. Chroma subsampling                       : 4:2:0 (Type 2)
  17. Bit depth                                : 10 bits
  18. Bits/(Pixel*Frame)                       : 0.340
  19. Stream size                              : 60.2 GiB (87%)
  20. Title                                    : Hereditary.2018.2160p.BluRay.REMUX.HEVC.DTS-HD.MA.5.1-FGT
  21. Default                                  : Yes
  22. Forced                                   : No
  23. Color range                              : Limited
  24. Color primaries                          : BT.2020
  25. Transfer characteristics                 : PQ
  26. Matrix coefficients                      : BT.2020 non-constant
  27. Mastering display color primaries        : Display P3
  28. Mastering display luminance              : min: 0.0001 cd/m2, max: 1000 cd/m2
  29. Maximum Content Light Level              : 901 cd/m2
  30. Maximum Frame-Average Light Level        : 290 cd/m2

  31. Video #2
  32. ID                                       : 2
  33. Format                                   : HEVC
  34. Format/Info                              : High Efficiency Video Coding
  35. Commercial name                          : HDR10
  36. Format profile                           : Main [url=/cdn-cgi/l/email-protection][email protected][/url]@High
  37. Codec ID                                 : V_MPEGH/ISO/HEVC
  38. Duration                                 : 2 h 7 min
  39. Bit rate                                 : 7 146 kb/s
  40. Width                                    : 1 920 pixels
  41. Height                                   : 1 080 pixels
  42. Display aspect ratio                     : 16:9
  43. Frame rate mode                          : Constant
  44. Frame rate                               : 23.976 (24000/1001) FPS
  45. Color space                              : YUV
  46. Chroma subsampling                       : 4:2:0 (Type 2)
  47. Bit depth                                : 10 bits
  48. Bits/(Pixel*Frame)                       : 0.144
  49. Stream size                              : 6.36 GiB (9%)
  50. Title                                    : Hereditary.2018.2160p.BluRay.REMUX.HEVC.DTS-HD.MA.5.1-FGT
  51. Default                                  : No
  52. Forced                                   : No
  53. Color range                              : Limited
  54. Color primaries                          : BT.2020
  55. Transfer characteristics                 : PQ
  56. Matrix coefficients                      : BT.2020 non-constant
  57. Mastering display color primaries        : Display P3
  58. Mastering display luminance              : min: 0.0001 cd/m2, max: 1000 cd/m2

  59. Audio
  60. ID                                       : 3
  61. Format                                   : DTS
  62. Format/Info                              : Digital Theater Systems
  63. Format profile                           : MA / Core
  64. Codec ID                                 : A_DTS
  65. Duration                                 : 2 h 7 min
  66. Bit rate mode                            : Variable / Constant
  67. Bit rate                                 : 3 375 kb/s / 1 509 kb/s
  68. Channel(s)                               : 6 channels
  69. Channel positions                        : Front: L C R, Side: L R, LFE
  70. Sampling rate                            : 48.0 kHz
  71. Frame rate                               : 93.750 FPS (512 SPF)
  72. Bit depth                                : 24 bits
  73. Compression mode                         : Lossless / Lossy
  74. Stream size                              : 3.00 GiB (4%)
  75. Title                                    : Hereditary.2018.2160p.BluRay.REMUX.HEVC.DTS-HD.MA.5.1-FGT
  76. Language                                 : English
  77. Default                                  : Yes
  78. Forced                                   : No

  79. Text #1
  80. ID                                       : 4
  81. Format                                   : PGS
  82. Muxing mode                              : zlib
  83. Codec ID                                 : S_HDMV/PGS
  84. Codec ID/Info                            : Picture based subtitle format used on BDs/HD-DVDs
  85. Duration                                 : 2 h 0 min
  86. Bit rate                                 : 28.0 kb/s
  87. Count of elements                        : 2494
  88. Stream size                              : 24.1 MiB (0%)
  89. Title                                    : English-PGS
  90. Language                                 : English
  91. Default                                  : Yes
  92. Forced                                   : No

  93. Text #2
  94. ID                                       : 5
  95. Format                                   : PGS
  96. Muxing mode                              : zlib
  97. Codec ID                                 : S_HDMV/PGS
  98. Codec ID/Info                            : Picture based subtitle format used on BDs/HD-DVDs
  99. Duration                                 : 2 h 6 min
  100. Bit rate                                 : 20.6 kb/s
  101. Count of elements                        : 1880
  102. Stream size                              : 18.6 MiB (0%)
  103. Title                                    : Spanish-PGS
  104. Language                                 : Spanish
  105. Default                                  : No
  106. Forced                                   : No

  107. Menu
  108. 00:00:00.000                             : :Chapter 1
  109. 00:06:03.321                             : :Chapter 2
  110. 00:13:34.146                             : :Chapter 3
  111. 00:23:01.129                             : :Chapter 4
  112. 00:26:31.172                             : :Chapter 5
  113. 00:34:57.762                             : :Chapter 6
  114. 00:40:56.495                             : :Chapter 7
  115. 00:47:23.090                             : :Chapter 8
  116. 00:54:34.396                             : :Chapter 9
  117. 01:04:02.880                             : :Chapter 10
  118. 01:08:55.631                             : :Chapter 11
  119. 01:19:35.854                             : :Chapter 12
  120. 01:25:09.395                             : :Chapter 13
  121. 01:32:50.314                             : :Chapter 14
  122. 01:40:01.412                             : :Chapter 15
  123. 01:53:21.377                             : :Chapter 16
复制代码

复制代码








回复

使用道具 举报

懒得打字嘛,点击右侧快捷回复 【右侧内容,后台自定义】
您需要登录后才可以回帖 登录 | 立即加入

本版积分规则

Archiver|小黑屋| 蓝光电影网 |网站地图

Copyright © 2021 Comsenz Inc. Powered by 蓝光电影网

蓝光电影网

本站内容由用户自主分享和转载自互联网,转载目的在于传递更多信息,并不代表本网赞同其观点和对其真实性负责。

如有侵权、违反国家法律政策行为,请联系我们,我们会第一时间及时清除和处理!

举报反馈邮箱:[email protected]

快速回复 返回顶部 返回列表