找回密码

蓝光电影网

查看: 764|回复: 6

瞒天过海:美人计/女版十一罗汉 Oceans.Eight.2018.2160p.BluRay.REMUX.HEVC.DTS-HD.MA.TrueHD.7.1.Atmos-FGT 55.32GB

[复制链接]
蓝光币
623
发表于 2018-9-9 23:05:48 | 显示全部楼层 |阅读模式

瞒天过海:美人计/女版十一罗汉 Oceans.Eight.2018.2160p.BluRay.REMUX.HEVC.DTS-HD.MA.TrueHD.7.1.Atmos-FGT 55.32GB-1.jpg
◎译  名 瞒天过海:美人计/女版十一罗汉
◎片  名 Ocean's Eight
◎年  代 2018
◎产  地 美国
◎类  别 笑剧/犯罪
◎语  言 英语/德语/法语/汉语普通话
◎上映日期 2018-06-08(美国)
◎豆瓣评分 6.8/10 from 58,231 users
◎豆瓣链接 https://movie.douban.com/subject/26654269/
◎片  长 110分钟
◎导  演 盖瑞·罗斯 Gary Ross
◎主  演 桑德拉·布洛克 Sandra Bullock
      凯特·布兰切特 Cate Blanchett
      安妮·海瑟薇 Anne Hathaway
      海伦娜·伯翰·卡特 Helena Bonham Carter
      蕾哈娜 Rihanna
      莎拉·保罗森 Sarah Paulson
      敏迪·卡灵 Mindy Kaling
      奥卡菲娜 Awkwafina
      詹姆斯·柯登 James Corden
      理查德·阿米蒂奇 Richard Armitage
      格里芬·邓恩 Griffin Dunne
      迪德尔·古德温 Deidre Goodwin
      丹尼埃拉·拉贝尼 Daniella Rabbani
      埃利奥特·古尔德 Elliott Gould
      夏洛特·柯克 Charlotte Kirk
      达科塔·范宁 Dakota Fanning
      理查德·罗比查乌克斯 Richard Robichaux
      达米安·杨 Damian Young
      戈登·格里克 Gideon Glick
      凯特琳·梅纳 Caitlin Mehner
      詹姆斯·比贝里 James Biberi
      香农·弗雷尔 Shannon Freyer
      康纳尔·多诺万 Conor Donovan
      凯文·布朗 Kevin Brown
      马尔洛·托马斯 Marlo Thomas
      丹娜·爱薇 Dana Ivey
      玛丽·路易丝·威尔逊 Mary Louise Wilson
      伊丽莎白·阿什利 Elizabeth Ashley
      凯蒂·霍尔姆斯 Katie Holmes
      肯多尔·詹纳 Kendall Jenner
      凯莉·詹娜 Kylie Jenner
      金·卡戴珊 Kim Kardashian

◎简  介

  桑德拉·布洛克饰演的Debbie Ocean是《十一罗汉》团体头子乔治·克鲁尼饰演的Danny Ocean的妹妹,曾因偷盗入狱服刑。而黛比刚一出狱就策划惊天大案,与凯特·布兰切特饰演的好友一路收罗顶尖高手,预备在一年一度的时髦盛会Met Gala(纽约大城市艺术博物馆慈善舞会)上窃取由安妮·海瑟薇饰演的大明星所佩戴,代价一亿五万万美金的卡地亚钻石项链。

  1. Video #1
  2. ID                                       : 1
  3. Format                                   : HEVC
  4. Format/Info                              : High Efficiency Video Coding
  5. Commercial name                          : HDR10
  6. Format profile                           : Main [url=/cdn-cgi/l/email-protection][email protected][/url]@High
  7. Codec ID                                 : V_MPEGH/ISO/HEVC
  8. Duration                                 : 1 h 50 min
  9. Bit rate                                 : 58.3 Mb/s
  10. Width                                    : 3 840 pixels
  11. Height                                   : 2 160 pixels
  12. Display aspect ratio                     : 16:9
  13. Frame rate mode                          : Constant
  14. Frame rate                               : 23.976 (24000/1001) FPS
  15. Color space                              : YUV
  16. Chroma subsampling                       : 4:2:0 (Type 2)
  17. Bit depth                                : 10 bits
  18. Bits/(Pixel*Frame)                       : 0.293
  19. Stream size                              : 44.9 GiB (81%)
  20. Title                                    : Oceans.Eight.2018.2160p.BluRay.REMUX.HEVC.DTS-HD.MA.TrueHD.7.1.Atmos-FGT
  21. Default                                  : Yes
  22. Forced                                   : No
  23. Color range                              : Limited
  24. Color primaries                          : BT.2020
  25. Transfer characteristics                 : PQ
  26. Matrix coefficients                      : BT.2020 non-constant
  27. Mastering display color primaries        : Display P3
  28. Mastering display luminance              : min: 0.0050 cd/m2, max: 4000 cd/m2
  29. Maximum Content Light Level              : 1360 cd/m2
  30. Maximum Frame-Average Light Level        : 92 cd/m2

  31. Video #2
  32. ID                                       : 2
  33. Format                                   : HEVC
  34. Format/Info                              : High Efficiency Video Coding
  35. Commercial name                          : HDR10
  36. Format profile                           : Main [url=/cdn-cgi/l/email-protection][email protected][/url]@High
  37. Codec ID                                 : V_MPEGH/ISO/HEVC
  38. Duration                                 : 1 h 50 min
  39. Bit rate                                 : 59.3 kb/s
  40. Width                                    : 1 920 pixels
  41. Height                                   : 1 080 pixels
  42. Display aspect ratio                     : 16:9
  43. Frame rate mode                          : Constant
  44. Frame rate                               : 23.976 (24000/1001) FPS
  45. Color space                              : YUV
  46. Chroma subsampling                       : 4:2:0 (Type 2)
  47. Bit depth                                : 10 bits
  48. Bits/(Pixel*Frame)                       : 0.001
  49. Stream size                              : 46.7 MiB (0%)
  50. Title                                    : Oceans.Eight.2018.2160p.BluRay.REMUX.HEVC.DTS-HD.MA.TrueHD.7.1.Atmos-FGT
  51. Default                                  : No
  52. Forced                                   : No
  53. Color range                              : Limited
  54. Color primaries                          : BT.2020
  55. Transfer characteristics                 : PQ
  56. Matrix coefficients                      : BT.2020 non-constant
  57. Mastering display color primaries        : Display P3
  58. Mastering display luminance              : min: 0.0050 cd/m2, max: 4000 cd/m2

  59. Audio #1
  60. ID                                       : 3
  61. Format                                   : TrueHD
  62. Format profile                           : TrueHD+Atmos / TrueHD
  63. Codec ID                                 : A_TRUEHD
  64. Duration                                 : 1 h 50 min
  65. Bit rate mode                            : Variable
  66. Bit rate                                 : 2 782 kb/s
  67. Maximum bit rate                         : 4 275 kb/s
  68. Channel(s)                               : Object Based / 8 channels
  69. Channel positions                        : Object Based / Front: L C R, Side: L R, Back: L R, LFE
  70. Sampling rate                            :  / 48.0 kHz
  71. Frame rate                               : 1 200.000 FPS (40 SPF)
  72. Compression mode                         : Lossless
  73. Stream size                              : 2.14 GiB (4%)
  74. Title                                    : Oceans.Eight.2018.2160p.BluRay.REMUX.HEVC.DTS-HD.MA.TrueHD.7.1.Atmos-FGT
  75. Language                                 : English
  76. Default                                  : Yes
  77. Forced                                   : No

  78. Audio #2
  79. ID                                       : 4
  80. Format                                   : DTS
  81. Format/Info                              : Digital Theater Systems
  82. Format profile                           : MA / Core
  83. Codec ID                                 : A_DTS
  84. Duration                                 : 1 h 50 min
  85. Bit rate mode                            : Variable / Constant
  86. Bit rate                                 : 4 034 kb/s / 1 509 kb/s
  87. Channel(s)                               : 8 channels / 6 channels
  88. Channel positions                        : Front: L C R, Side: L R, Back: L R, LFE / Front: L C R, Side: L R, LFE
  89. Sampling rate                            : 48.0 kHz
  90. Frame rate                               : 93.750 FPS (512 SPF)
  91. Bit depth                                : 24 bits
  92. Compression mode                         : Lossless / Lossy
  93. Stream size                              : 3.10 GiB (6%)
  94. Title                                    : Oceans.Eight.2018.2160p.BluRay.REMUX.HEVC.DTS-HD.MA.TrueHD.7.1.Atmos-FGT
  95. Language                                 : English
  96. Default                                  : No
  97. Forced                                   : No

  98. Audio #3
  99. ID                                       : 5
  100. Format                                   : AC-3
  101. Format/Info                              : Audio Coding 3
  102. Codec ID                                 : A_AC3
  103. Duration                                 : 1 h 50 min
  104. Bit rate mode                            : Constant
  105. Bit rate                                 : 640 kb/s
  106. Channel(s)                               : 6 channels
  107. Channel positions                        : Front: L C R, Side: L R, LFE
  108. Sampling rate                            : 48.0 kHz
  109. Frame rate                               : 31.250 FPS (1536 SPF)
  110. Bit depth                                : 16 bits
  111. Compression mode                         : Lossy
  112. Stream size                              : 504 MiB (1%)
  113. Title                                    : Oceans.Eight.2018.2160p.BluRay.REMUX.HEVC.DTS-HD.MA.TrueHD.7.1.Atmos-FGT
  114. Language                                 : English
  115. Service kind                             : Complete Main
  116. Default                                  : No
  117. Forced                                   : No

  118. Audio #4
  119. ID                                       : 6
  120. Format                                   : AC-3
  121. Format/Info                              : Audio Coding 3
  122. Codec ID                                 : A_AC3
  123. Duration                                 : 1 h 50 min
  124. Bit rate mode                            : Constant
  125. Bit rate                                 : 640 kb/s
  126. Channel(s)                               : 6 channels
  127. Channel positions                        : Front: L C R, Side: L R, LFE
  128. Sampling rate                            : 48.0 kHz
  129. Frame rate                               : 31.250 FPS (1536 SPF)
  130. Bit depth                                : 16 bits
  131. Compression mode                         : Lossy
  132. Stream size                              : 504 MiB (1%)
  133. Title                                    : Oceans.Eight.2018.2160p.BluRay.REMUX.HEVC.DTS-HD.MA.TrueHD.7.1.Atmos-FGT
  134. Language                                 : English
  135. Service kind                             : Complete Main
  136. Default                                  : No
  137. Forced                                   : No

  138. Audio #5
  139. ID                                       : 7
  140. Format                                   : AC-3
  141. Format/Info                              : Audio Coding 3
  142. Codec ID                                 : A_AC3
  143. Duration                                 : 1 h 50 min
  144. Bit rate mode                            : Constant
  145. Bit rate                                 : 640 kb/s
  146. Channel(s)                               : 6 channels
  147. Channel positions                        : Front: L C R, Side: L R, LFE
  148. Sampling rate                            : 48.0 kHz
  149. Frame rate                               : 31.250 FPS (1536 SPF)
  150. Bit depth                                : 16 bits
  151. Compression mode                         : Lossy
  152. Stream size                              : 504 MiB (1%)
  153. Title                                    : Oceans.Eight.2018.2160p.BluRay.REMUX.HEVC.DTS-HD.MA.TrueHD.7.1.Atmos-FGT
  154. Language                                 : English
  155. Service kind                             : Complete Main
  156. Default                                  : No
  157. Forced                                   : No

  158. Audio #6
  159. ID                                       : 8
  160. Format                                   : AC-3
  161. Format/Info                              : Audio Coding 3
  162. Codec ID                                 : A_AC3
  163. Duration                                 : 1 h 50 min
  164. Bit rate mode                            : Constant
  165. Bit rate                                 : 640 kb/s
  166. Channel(s)                               : 6 channels
  167. Channel positions                        : Front: L C R, Side: L R, LFE
  168. Sampling rate                            : 48.0 kHz
  169. Frame rate                               : 31.250 FPS (1536 SPF)
  170. Bit depth                                : 16 bits
  171. Compression mode                         : Lossy
  172. Stream size                              : 504 MiB (1%)
  173. Title                                    : Oceans.Eight.2018.2160p.BluRay.REMUX.HEVC.DTS-HD.MA.TrueHD.7.1.Atmos-FGT
  174. Language                                 : French
  175. Service kind                             : Complete Main
  176. Default                                  : No
  177. Forced                                   : No

  178. Audio #7
  179. ID                                       : 9
  180. Format                                   : AC-3
  181. Format/Info                              : Audio Coding 3
  182. Codec ID                                 : A_AC3
  183. Duration                                 : 1 h 50 min
  184. Bit rate mode                            : Constant
  185. Bit rate                                 : 640 kb/s
  186. Channel(s)                               : 6 channels
  187. Channel positions                        : Front: L C R, Side: L R, LFE
  188. Sampling rate                            : 48.0 kHz
  189. Frame rate                               : 31.250 FPS (1536 SPF)
  190. Bit depth                                : 16 bits
  191. Compression mode                         : Lossy
  192. Stream size                              : 504 MiB (1%)
  193. Title                                    : Oceans.Eight.2018.2160p.BluRay.REMUX.HEVC.DTS-HD.MA.TrueHD.7.1.Atmos-FGT
  194. Language                                 : Italian
  195. Service kind                             : Complete Main
  196. Default                                  : No
  197. Forced                                   : No

  198. Audio #8
  199. ID                                       : 10
  200. Format                                   : AC-3
  201. Format/Info                              : Audio Coding 3
  202. Codec ID                                 : A_AC3
  203. Duration                                 : 1 h 50 min
  204. Bit rate mode                            : Constant
  205. Bit rate                                 : 640 kb/s
  206. Channel(s)                               : 6 channels
  207. Channel positions                        : Front: L C R, Side: L R, LFE
  208. Sampling rate                            : 48.0 kHz
  209. Frame rate                               : 31.250 FPS (1536 SPF)
  210. Bit depth                                : 16 bits
  211. Compression mode                         : Lossy
  212. Stream size                              : 504 MiB (1%)
  213. Title                                    : Oceans.Eight.2018.2160p.BluRay.REMUX.HEVC.DTS-HD.MA.TrueHD.7.1.Atmos-FGT
  214. Language                                 : Spanish
  215. Service kind                             : Complete Main
  216. Default                                  : No
  217. Forced                                   : No

  218. Audio #9
  219. ID                                       : 11
  220. Format                                   : AC-3
  221. Format/Info                              : Audio Coding 3
  222. Codec ID                                 : A_AC3
  223. Duration                                 : 1 h 50 min
  224. Bit rate mode                            : Constant
  225. Bit rate                                 : 640 kb/s
  226. Channel(s)                               : 6 channels
  227. Channel positions                        : Front: L C R, Side: L R, LFE
  228. Sampling rate                            : 48.0 kHz
  229. Frame rate                               : 31.250 FPS (1536 SPF)
  230. Bit depth                                : 16 bits
  231. Compression mode                         : Lossy
  232. Stream size                              : 504 MiB (1%)
  233. Title                                    : Oceans.Eight.2018.2160p.BluRay.REMUX.HEVC.DTS-HD.MA.TrueHD.7.1.Atmos-FGT
  234. Language                                 : Spanish
  235. Service kind                             : Complete Main
  236. Default                                  : No
  237. Forced                                   : No

  238. Audio #10
  239. ID                                       : 12
  240. Format                                   : AC-3
  241. Format/Info                              : Audio Coding 3
  242. Codec ID                                 : A_AC3
  243. Duration                                 : 1 h 50 min
  244. Bit rate mode                            : Constant
  245. Bit rate                                 : 640 kb/s
  246. Channel(s)                               : 6 channels
  247. Channel positions                        : Front: L C R, Side: L R, LFE
  248. Sampling rate                            : 48.0 kHz
  249. Frame rate                               : 31.250 FPS (1536 SPF)
  250. Bit depth                                : 16 bits
  251. Compression mode                         : Lossy
  252. Stream size                              : 504 MiB (1%)
  253. Title                                    : Oceans.Eight.2018.2160p.BluRay.REMUX.HEVC.DTS-HD.MA.TrueHD.7.1.Atmos-FGT
  254. Language                                 : Portuguese
  255. Service kind                             : Complete Main
  256. Default                                  : No
  257. Forced                                   : No

  258. Audio #11
  259. ID                                       : 13
  260. Format                                   : AC-3
  261. Format/Info                              : Audio Coding 3
  262. Codec ID                                 : A_AC3
  263. Duration                                 : 1 h 50 min
  264. Bit rate mode                            : Constant
  265. Bit rate                                 : 640 kb/s
  266. Channel(s)                               : 6 channels
  267. Channel positions                        : Front: L C R, Side: L R, LFE
  268. Sampling rate                            : 48.0 kHz
  269. Frame rate                               : 31.250 FPS (1536 SPF)
  270. Bit depth                                : 16 bits
  271. Compression mode                         : Lossy
  272. Stream size                              : 504 MiB (1%)
  273. Title                                    : Oceans.Eight.2018.2160p.BluRay.REMUX.HEVC.DTS-HD.MA.TrueHD.7.1.Atmos-FGT
  274. Language                                 : Russian
  275. Service kind                             : Complete Main
  276. Default                                  : No
  277. Forced                                   : No

  278. Audio #12
  279. ID                                       : 14
  280. Format                                   : AC-3
  281. Format/Info                              : Audio Coding 3
  282. Codec ID                                 : A_AC3
  283. Duration                                 : 1 h 50 min
  284. Bit rate mode                            : Constant
  285. Bit rate                                 : 640 kb/s
  286. Channel(s)                               : 6 channels
  287. Channel positions                        : Front: L C R, Side: L R, LFE
  288. Sampling rate                            : 48.0 kHz
  289. Frame rate                               : 31.250 FPS (1536 SPF)
  290. Bit depth                                : 16 bits
  291. Compression mode                         : Lossy
  292. Stream size                              : 504 MiB (1%)
  293. Title                                    : Oceans.Eight.2018.2160p.BluRay.REMUX.HEVC.DTS-HD.MA.TrueHD.7.1.Atmos-FGT
  294. Language                                 : Thai
  295. Service kind                             : Complete Main
  296. Default                                  : No
  297. Forced                                   : No

  298. Text #1
  299. ID                                       : 15
  300. Format                                   : PGS
  301. Muxing mode                              : zlib
  302. Codec ID                                 : S_HDMV/PGS
  303. Codec ID/Info                            : Picture based subtitle format used on BDs/HD-DVDs
  304. Duration                                 : 1 h 49 min
  305. Bit rate                                 : 40.1 kb/s
  306. Count of elements                        : 3526
  307. Stream size                              : 31.4 MiB (0%)
  308. Title                                    : English-PGS
  309. Language                                 : English
  310. Default                                  : Yes
  311. Forced                                   : No

  312. Text #2
  313. ID                                       : 16
  314. Format                                   : PGS
  315. Muxing mode                              : zlib
  316. Codec ID                                 : S_HDMV/PGS
  317. Codec ID/Info                            : Picture based subtitle format used on BDs/HD-DVDs
  318. Duration                                 : 1 h 49 min
  319. Bit rate                                 : 30.6 kb/s
  320. Count of elements                        : 2952
  321. Stream size                              : 24.0 MiB (0%)
  322. Title                                    : French-PGS
  323. Language                                 : French
  324. Default                                  : No
  325. Forced                                   : No

  326. Text #3
  327. ID                                       : 17
  328. Format                                   : PGS
  329. Muxing mode                              : zlib
  330. Codec ID                                 : S_HDMV/PGS
  331. Codec ID/Info                            : Picture based subtitle format used on BDs/HD-DVDs
  332. Duration                                 : 1 h 49 min
  333. Bit rate                                 : 34.9 kb/s
  334. Count of elements                        : 3696
  335. Stream size                              : 27.3 MiB (0%)
  336. Title                                    : Italian-PGS
  337. Language                                 : Italian
  338. Default                                  : No
  339. Forced                                   : No

  340. Text #4
  341. ID                                       : 18
  342. Format                                   : PGS
  343. Muxing mode                              : zlib
  344. Codec ID                                 : S_HDMV/PGS
  345. Codec ID/Info                            : Picture based subtitle format used on BDs/HD-DVDs
  346. Duration                                 : 1 h 49 min
  347. Bit rate                                 : 32.7 kb/s
  348. Count of elements                        : 3224
  349. Stream size                              : 25.6 MiB (0%)
  350. Title                                    : Spanish-PGS
  351. Language                                 : Spanish
  352. Default                                  : No
  353. Forced                                   : No

  354. Text #5
  355. ID                                       : 19
  356. Format                                   : PGS
  357. Muxing mode                              : zlib
  358. Codec ID                                 : S_HDMV/PGS
  359. Codec ID/Info                            : Picture based subtitle format used on BDs/HD-DVDs
  360. Duration                                 : 1 h 49 min
  361. Bit rate                                 : 32.2 kb/s
  362. Count of elements                        : 3100
  363. Stream size                              : 25.2 MiB (0%)
  364. Title                                    : Chinese-PGS
  365. Language                                 : Chinese
  366. Default                                  : No
  367. Forced                                   : No

  368. Text #6
  369. ID                                       : 20
  370. Format                                   : PGS
  371. Muxing mode                              : zlib
  372. Codec ID                                 : S_HDMV/PGS
  373. Codec ID/Info                            : Picture based subtitle format used on BDs/HD-DVDs
  374. Duration                                 : 1 h 49 min
  375. Bit rate                                 : 37.7 kb/s
  376. Count of elements                        : 3338
  377. Stream size                              : 29.6 MiB (0%)
  378. Title                                    : Chinese-PGS
  379. Language                                 : Chinese
  380. Default                                  : No
  381. Forced                                   : No

  382. Text #7
  383. ID                                       : 21
  384. Format                                   : PGS
  385. Muxing mode                              : zlib
  386. Codec ID                                 : S_HDMV/PGS
  387. Codec ID/Info                            : Picture based subtitle format used on BDs/HD-DVDs
  388. Duration                                 : 1 h 49 min
  389. Bit rate                                 : 30.9 kb/s
  390. Count of elements                        : 3312
  391. Stream size                              : 24.2 MiB (0%)
  392. Title                                    : Chinese-PGS
  393. Language                                 : Chinese
  394. Default                                  : No
  395. Forced                                   : No

  396. Text #8
  397. ID                                       : 22
  398. Format                                   : PGS
  399. Muxing mode                              : zlib
  400. Codec ID                                 : S_HDMV/PGS
  401. Codec ID/Info                            : Picture based subtitle format used on BDs/HD-DVDs
  402. Duration                                 : 1 h 49 min
  403. Bit rate                                 : 20.1 kb/s
  404. Count of elements                        : 3264
  405. Stream size                              : 15.7 MiB (0%)
  406. Title                                    : Korean-PGS
  407. Language                                 : Korean
  408. Default                                  : No
  409. Forced                                   : No

  410. Text #9
  411. ID                                       : 23
  412. Format                                   : PGS
  413. Muxing mode                              : zlib
  414. Codec ID                                 : S_HDMV/PGS
  415. Codec ID/Info                            : Picture based subtitle format used on BDs/HD-DVDs
  416. Duration                                 : 1 h 49 min
  417. Bit rate                                 : 33.0 kb/s
  418. Count of elements                        : 3284
  419. Stream size                              : 25.8 MiB (0%)
  420. Title                                    : Spanish-PGS
  421. Language                                 : Spanish
  422. Default                                  : No
  423. Forced                                   : No

  424. Text #10
  425. ID                                       : 24
  426. Format                                   : PGS
  427. Muxing mode                              : zlib
  428. Codec ID                                 : S_HDMV/PGS
  429. Codec ID/Info                            : Picture based subtitle format used on BDs/HD-DVDs
  430. Duration                                 : 1 h 49 min
  431. Bit rate                                 : 33.7 kb/s
  432. Count of elements                        : 3292
  433. Stream size                              : 26.4 MiB (0%)
  434. Title                                    : Portuguese-PGS
  435. Language                                 : Portuguese
  436. Default                                  : No
  437. Forced                                   : No

  438. Text #11
  439. ID                                       : 25
  440. Format                                   : PGS
  441. Muxing mode                              : zlib
  442. Codec ID                                 : S_HDMV/PGS
  443. Codec ID/Info                            : Picture based subtitle format used on BDs/HD-DVDs
  444. Duration                                 : 1 h 49 min
  445. Bit rate                                 : 20.9 kb/s
  446. Count of elements                        : 3360
  447. Stream size                              : 16.3 MiB (0%)
  448. Title                                    : Arabic-PGS
  449. Language                                 : Arabic
  450. Default                                  : No
  451. Forced                                   : No

  452. Text #12
  453. ID                                       : 26
  454. Format                                   : PGS
  455. Muxing mode                              : zlib
  456. Codec ID                                 : S_HDMV/PGS
  457. Codec ID/Info                            : Picture based subtitle format used on BDs/HD-DVDs
  458. Duration                                 : 1 h 49 min
  459. Bit rate                                 : 30.5 kb/s
  460. Count of elements                        : 2150
  461. Stream size                              : 23.9 MiB (0%)
  462. Title                                    : Danish-PGS
  463. Language                                 : Danish
  464. Default                                  : No
  465. Forced                                   : No

  466. Text #13
  467. ID                                       : 27
  468. Format                                   : PGS
  469. Muxing mode                              : zlib
  470. Codec ID                                 : S_HDMV/PGS
  471. Codec ID/Info                            : Picture based subtitle format used on BDs/HD-DVDs
  472. Duration                                 : 1 h 49 min
  473. Bit rate                                 : 34.1 kb/s
  474. Count of elements                        : 3298
  475. Stream size                              : 26.7 MiB (0%)
  476. Title                                    : Finnish-PGS
  477. Language                                 : Finnish
  478. Default                                  : No
  479. Forced                                   : No

  480. Text #14
  481. ID                                       : 28
  482. Format                                   : PGS
  483. Muxing mode                              : zlib
  484. Codec ID                                 : S_HDMV/PGS
  485. Codec ID/Info                            : Picture based subtitle format used on BDs/HD-DVDs
  486. Duration                                 : 1 h 49 min
  487. Bit rate                                 : 29.5 kb/s
  488. Count of elements                        : 2504
  489. Stream size                              : 23.1 MiB (0%)
  490. Title                                    : Norwegian-PGS
  491. Language                                 : Norwegian
  492. Default                                  : No
  493. Forced                                   : No

  494. Text #15
  495. ID                                       : 29
  496. Format                                   : PGS
  497. Muxing mode                              : zlib
  498. Codec ID                                 : S_HDMV/PGS
  499. Codec ID/Info                            : Picture based subtitle format used on BDs/HD-DVDs
  500. Duration                                 : 1 h 49 min
  501. Bit rate                                 : 36.5 kb/s
  502. Count of elements                        : 2764
  503. Stream size                              : 28.6 MiB (0%)
  504. Title                                    : Russian-PGS
  505. Language                                 : Russian
  506. Default                                  : No
  507. Forced                                   : No

  508. Text #16
  509. ID                                       : 30
  510. Format                                   : PGS
  511. Muxing mode                              : zlib
  512. Codec ID                                 : S_HDMV/PGS
  513. Codec ID/Info                            : Picture based subtitle format used on BDs/HD-DVDs
  514. Duration                                 : 1 h 49 min
  515. Bit rate                                 : 32.4 kb/s
  516. Count of elements                        : 3264
  517. Stream size                              : 25.3 MiB (0%)
  518. Title                                    : Swedish-PGS
  519. Language                                 : Swedish
  520. Default                                  : No
  521. Forced                                   : No

  522. Text #17
  523. ID                                       : 31
  524. Format                                   : PGS
  525. Muxing mode                              : zlib
  526. Codec ID                                 : S_HDMV/PGS
  527. Codec ID/Info                            : Picture based subtitle format used on BDs/HD-DVDs
  528. Duration                                 : 1 h 49 min
  529. Bit rate                                 : 32.3 kb/s
  530. Count of elements                        : 3306
  531. Stream size                              : 25.3 MiB (0%)
  532. Title                                    : Thai-PGS
  533. Language                                 : Thai
  534. Default                                  : No
  535. Forced                                   : No

  536. Text #18
  537. ID                                       : 32
  538. Format                                   : PGS
  539. Muxing mode                              : zlib
  540. Codec ID                                 : S_HDMV/PGS
  541. Codec ID/Info                            : Picture based subtitle format used on BDs/HD-DVDs
  542. Duration                                 : 1 h 42 min
  543. Bit rate                                 : 1 024 b/s
  544. Count of elements                        : 84
  545. Stream size                              : 768 KiB (0%)
  546. Title                                    : French-FORCED-PGS
  547. Language                                 : French
  548. Default                                  : No
  549. Forced                                   : No

  550. Text #19
  551. ID                                       : 33
  552. Format                                   : PGS
  553. Muxing mode                              : zlib
  554. Codec ID                                 : S_HDMV/PGS
  555. Codec ID/Info                            : Picture based subtitle format used on BDs/HD-DVDs
  556. Duration                                 : 1 h 47 min
  557. Bit rate                                 : 1 818 b/s
  558. Count of elements                        : 168
  559. Stream size                              : 1.40 MiB (0%)
  560. Title                                    : Italian-FORCED-PGS
  561. Language                                 : Italian
  562. Default                                  : No
  563. Forced                                   : No

  564. Text #20
  565. ID                                       : 34
  566. Format                                   : PGS
  567. Muxing mode                              : zlib
  568. Codec ID                                 : S_HDMV/PGS
  569. Codec ID/Info                            : Picture based subtitle format used on BDs/HD-DVDs
  570. Duration                                 : 1 h 47 min
  571. Bit rate                                 : 1 771 b/s
  572. Count of elements                        : 156
  573. Stream size                              : 1.36 MiB (0%)
  574. Title                                    : Spanish-FORCD-PGS
  575. Language                                 : Spanish
  576. Default                                  : No
  577. Forced                                   : No

  578. Text #21
  579. ID                                       : 35
  580. Format                                   : PGS
  581. Muxing mode                              : zlib
  582. Codec ID                                 : S_HDMV/PGS
  583. Codec ID/Info                            : Picture based subtitle format used on BDs/HD-DVDs
  584. Duration                                 : 1 h 47 min
  585. Bit rate                                 : 1 407 b/s
  586. Count of elements                        : 128
  587. Stream size                              : 1.08 MiB (0%)
  588. Title                                    : Spanish-FORCD-PGS
  589. Language                                 : Spanish
  590. Default                                  : No
  591. Forced                                   : No

  592. Text #22
  593. ID                                       : 36
  594. Format                                   : PGS
  595. Muxing mode                              : zlib
  596. Codec ID                                 : S_HDMV/PGS
  597. Codec ID/Info                            : Picture based subtitle format used on BDs/HD-DVDs
  598. Duration                                 : 1 h 29 min
  599. Bit rate                                 : 838 b/s
  600. Count of elements                        : 76
  601. Stream size                              : 550 KiB (0%)
  602. Title                                    : Portuguese-FORCED-PGS
  603. Language                                 : Portuguese
  604. Default                                  : No
  605. Forced                                   : No

  606. Text #23
  607. ID                                       : 37
  608. Format                                   : PGS
  609. Muxing mode                              : zlib
  610. Codec ID                                 : S_HDMV/PGS
  611. Codec ID/Info                            : Picture based subtitle format used on BDs/HD-DVDs
  612. Duration                                 : 1 h 47 min
  613. Bit rate                                 : 2 974 b/s
  614. Count of elements                        : 224
  615. Stream size                              : 2.29 MiB (0%)
  616. Title                                    : Russian-FORCED-PGS
  617. Language                                 : Russian
  618. Default                                  : No
  619. Forced                                   : No

  620. Text #24
  621. ID                                       : 38
  622. Format                                   : PGS
  623. Muxing mode                              : zlib
  624. Codec ID                                 : S_HDMV/PGS
  625. Codec ID/Info                            : Picture based subtitle format used on BDs/HD-DVDs
  626. Duration                                 : 1 h 47 min
  627. Bit rate                                 : 1 607 b/s
  628. Count of elements                        : 172
  629. Stream size                              : 1.24 MiB (0%)
  630. Title                                    : Thai-FORCED-PGS
  631. Language                                 : Thai
  632. Default                                  : No
  633. Forced                                   : No

  634. Menu
  635. 00:00:00.000                             : :Chapter 1
  636. 00:11:18.260                             : :Chapter 2
  637. 00:20:06.747                             : :Chapter 3
  638. 00:31:37.103                             : :Chapter 4
  639. 00:41:29.612                             : :Chapter 5
  640. 00:49:18.914                             : :Chapter 6
  641. 00:56:22.295                             : :Chapter 7
  642. 01:05:50.071                             : :Chapter 8
  643. 01:16:32.546                             : :Chapter 9
  644. 01:27:01.174                             : :Chapter 10
  645. 01:35:42.153                             : :Chapter 11
  646. 01:44:08.659                             : :Chapter 12
复制代码

复制代码

瞒天过海:美人计/女版十一罗汉 Oceans.Eight.2018.2160p.BluRay.REMUX.HEVC.DTS-HD.MA.TrueHD.7.1.Atmos-FGT 55.32GB-2.png 瞒天过海:美人计/女版十一罗汉 Oceans.Eight.2018.2160p.BluRay.REMUX.HEVC.DTS-HD.MA.TrueHD.7.1.Atmos-FGT 55.32GB-3.png 瞒天过海:美人计/女版十一罗汉 Oceans.Eight.2018.2160p.BluRay.REMUX.HEVC.DTS-HD.MA.TrueHD.7.1.Atmos-FGT 55.32GB-4.png






回复

使用道具 举报

蓝光币
189
发表于 2018-9-10 21:12:13 | 显示全部楼层
强烈支持楼主ing……
回复 支持 反对

使用道具 举报

懒得打字嘛,点击右侧快捷回复 【右侧内容,后台自定义】
您需要登录后才可以回帖 登录 | 立即加入

本版积分规则

Archiver|小黑屋| 蓝光电影网 |网站地图

Copyright © 2021 Comsenz Inc. Powered by 蓝光电影网

蓝光电影网

本站内容由用户自主分享和转载自互联网,转载目的在于传递更多信息,并不代表本网赞同其观点和对其真实性负责。

如有侵权、违反国家法律政策行为,请联系我们,我们会第一时间及时清除和处理!

举报反馈邮箱:[email protected]

快速回复 返回顶部 返回列表