找回密码

蓝光电影网

查看: 698|回复: 8

绝地战警2/重案梦幻组2 Bad.Boys.II.2003.2160p.BluRay.REMUX.HEVC.DTS-HD.MA.TrueHD.7.1.Atmos-FGT 80.07GB

[复制链接]
蓝光币
623
发表于 2018-9-9 23:07:38 | 显示全部楼层 |阅读模式


◎译  名 绝地战警2/重案梦幻组2/坏小子2
◎片  名 Bad Boys II
◎年  代 2003
◎产  地 美国
◎类  别 笑剧/行动/犯罪
◎语  言 英语/葡萄牙语
◎上映日期 2003-07-18(美国)
◎豆瓣评分 7.4/10 from 21,433 users
◎豆瓣链接 https://movie.douban.com/subject/1307917/
◎片  长 147 分钟
◎导  演 迈克尔·贝 Michael Bay
◎主  演 马丁·劳伦斯 Martin Lawrence
      威尔·史姑娘 Will Smith
      詹迪·莫拉 Jordi Mollà
      加布里埃尔·尤尼恩 Gabrielle Union
      彼得·斯特曼 Peter Stormare
      特里萨·兰德尔 Theresa Randle
      乔·潘托里亚诺 Joe Pantoliano
      迈克尔·珊农 Michael Shannon
      乔恩·塞达 Jon Seda
      尤尔·瓦斯克斯 Yul Vazquez
      贾森·曼努尔·奥拉扎巴尔 Jason Manuel Olazabal
      奥托·桑切斯 Otto Sanchez
      亨利·罗林斯 Henry Rollins
      安东尼·科隆 Antoni Corone
      Gary Nickens

◎简  介

  本片是《坏小子》的续篇,故事仍发生在迈阿密。迈阿密的毒品买卖于一夜之间变得异常疯狂众多,各个贩毒团体之间的火拼也接连不竭,为了观察贩毒团体内部的重重冲突,迈阿密警局的一对“黄金”同伴,潇洒的劳瑞(威尔?史姑娘)和神叨的宾纳(马丁?劳伦斯)再度临危受命,很快,两人摸清工作的后果结果:一股外来的贩毒势力正在侵入迈阿密的毒品市场,为首的毒枭野心勃勃,意图控制全部美国甚至欧洲的毒品买卖,建立贩毒王国。
  警方展开行动围歼贩毒团体时,一位DEA的女卧底西德妮(盖布瑞亚?尤妮恩)被毒贩劫持,对方开出的条件是,劳瑞和宾纳必须去干违法的事,这可难倒了两人,由于标致的西德妮不单是宾纳的亲妹妹,还是劳瑞的情人。

  1. Video
  2. ID                                       : 1
  3. Format                                   : HEVC
  4. Format/Info                              : High Efficiency Video Coding
  5. Commercial name                          : HDR10
  6. Format profile                           : Main [url=/cdn-cgi/l/email-protection][email protected][/url]@High
  7. Codec ID                                 : V_MPEGH/ISO/HEVC
  8. Duration                                 : 2 h 26 min
  9. Bit rate                                 : 51.0 Mb/s
  10. Width                                    : 3 840 pixels
  11. Height                                   : 2 160 pixels
  12. Display aspect ratio                     : 16:9
  13. Frame rate mode                          : Constant
  14. Frame rate                               : 23.976 (24000/1001) FPS
  15. Color space                              : YUV
  16. Chroma subsampling                       : 4:2:0 (Type 2)
  17. Bit depth                                : 10 bits
  18. Bits/(Pixel*Frame)                       : 0.256
  19. Stream size                              : 52.2 GiB (65%)
  20. Title                                    : Bad.Boys.II.2003.2160p.BluRay.REMUX.HEVC.DTS-HD.MA.TrueHD.7.1.Atmos-FGT
  21. Default                                  : Yes
  22. Forced                                   : No
  23. Color range                              : Limited
  24. Color primaries                          : BT.2020
  25. Transfer characteristics                 : PQ
  26. Matrix coefficients                      : BT.2020 non-constant
  27. Mastering display color primaries        : Display P3
  28. Mastering display luminance              : min: 0.0050 cd/m2, max: 4000 cd/m2
  29. Maximum Content Light Level              : 10000 cd/m2
  30. Maximum Frame-Average Light Level        : 1367 cd/m2

  31. Audio #1
  32. ID                                       : 2
  33. Format                                   : TrueHD
  34. Format profile                           : TrueHD+Atmos / TrueHD
  35. Codec ID                                 : A_TRUEHD
  36. Duration                                 : 2 h 26 min
  37. Bit rate mode                            : Variable
  38. Bit rate                                 : 5 774 kb/s
  39. Maximum bit rate                         : 8 961 kb/s
  40. Channel(s)                               : Object Based / 8 channels
  41. Channel positions                        : Object Based / Front: L C R, Side: L R, Back: L R, LFE
  42. Sampling rate                            :  / 48.0 kHz
  43. Frame rate                               : 1 200.000 FPS (40 SPF)
  44. Compression mode                         : Lossless
  45. Stream size                              : 5.92 GiB (7%)
  46. Title                                    : Bad.Boys.II.2003.2160p.BluRay.REMUX.HEVC.DTS-HD.MA.TrueHD.7.1.Atmos-FGT
  47. Language                                 : English
  48. Default                                  : Yes
  49. Forced                                   : No

  50. Audio #2
  51. ID                                       : 3
  52. Format                                   : DTS
  53. Format/Info                              : Digital Theater Systems
  54. Format profile                           : MA / Core
  55. Codec ID                                 : A_DTS
  56. Duration                                 : 2 h 26 min
  57. Bit rate mode                            : Variable / Constant
  58. Bit rate                                 : 4 644 kb/s / 1 509 kb/s
  59. Channel(s)                               : 8 channels / 6 channels
  60. Channel positions                        : Front: L C R, Side: L R, Back: L R, LFE / Front: L C R, Side: L R, LFE
  61. Sampling rate                            : 48.0 kHz
  62. Frame rate                               : 93.750 FPS (512 SPF)
  63. Bit depth                                : 24 bits
  64. Compression mode                         : Lossless / Lossy
  65. Stream size                              : 4.76 GiB (6%)
  66. Title                                    : Bad.Boys.II.2003.2160p.BluRay.REMUX.HEVC.DTS-HD.MA.TrueHD.7.1.Atmos-FGT
  67. Language                                 : English
  68. Default                                  : No
  69. Forced                                   : No

  70. Audio #3
  71. ID                                       : 4
  72. Format                                   : AC-3
  73. Format/Info                              : Audio Coding 3
  74. Codec ID                                 : A_AC3
  75. Duration                                 : 2 h 26 min
  76. Bit rate mode                            : Constant
  77. Bit rate                                 : 640 kb/s
  78. Channel(s)                               : 6 channels
  79. Channel positions                        : Front: L C R, Side: L R, LFE
  80. Sampling rate                            : 48.0 kHz
  81. Frame rate                               : 31.250 FPS (1536 SPF)
  82. Bit depth                                : 16 bits
  83. Compression mode                         : Lossy
  84. Stream size                              : 672 MiB (1%)
  85. Title                                    : Bad.Boys.II.2003.2160p.BluRay.REMUX.HEVC.DTS-HD.MA.TrueHD.7.1.Atmos-FGT
  86. Language                                 : English
  87. Service kind                             : Complete Main
  88. Default                                  : No
  89. Forced                                   : No

  90. Audio #4
  91. ID                                       : 5
  92. Format                                   : AC-3
  93. Format/Info                              : Audio Coding 3
  94. Codec ID                                 : A_AC3
  95. Duration                                 : 2 h 26 min
  96. Bit rate mode                            : Constant
  97. Bit rate                                 : 640 kb/s
  98. Channel(s)                               : 6 channels
  99. Channel positions                        : Front: L C R, Side: L R, LFE
  100. Sampling rate                            : 48.0 kHz
  101. Frame rate                               : 31.250 FPS (1536 SPF)
  102. Bit depth                                : 16 bits
  103. Compression mode                         : Lossy

  104. Stream size                              : 672 MiB (1%)
  105. Title                                    : Bad.Boys.II.2003.2160p.BluRay.REMUX.HEVC.DTS-HD.MA.TrueHD.7.1.Atmos-FGT
  106. Language                                 : Czech
  107. Service kind                             : Complete Main
  108. Default                                  : No
  109. Forced                                   : No

  110. Audio #5
  111. ID                                       : 6
  112. Format                                   : AC-3
  113. Format/Info                              : Audio Coding 3
  114. Codec ID                                 : A_AC3
  115. Duration                                 : 2 h 26 min
  116. Bit rate mode                            : Constant
  117. Bit rate                                 : 640 kb/s
  118. Channel(s)                               : 6 channels
  119. Channel positions                        : Front: L C R, Side: L R, LFE
  120. Sampling rate                            : 48.0 kHz
  121. Frame rate                               : 31.250 FPS (1536 SPF)
  122. Bit depth                                : 16 bits
  123. Compression mode                         : Lossy

  124. Stream size                              : 672 MiB (1%)
  125. Title                                    : Bad.Boys.II.2003.2160p.BluRay.REMUX.HEVC.DTS-HD.MA.TrueHD.7.1.Atmos-FGT
  126. Language                                 : French
  127. Service kind                             : Complete Main
  128. Default                                  : No
  129. Forced                                   : No

  130. Audio #6
  131. ID                                       : 7
  132. Format                                   : DTS
  133. Format/Info                              : Digital Theater Systems
  134. Format profile                           : MA / Core
  135. Codec ID                                 : A_DTS
  136. Duration                                 : 2 h 26 min
  137. Bit rate mode                            : Variable / Constant
  138. Bit rate                                 : 2 357 kb/s / 1 509 kb/s
  139. Channel(s)                               : 6 channels
  140. Channel positions                        : Front: L C R, Side: L R, LFE
  141. Sampling rate                            : 48.0 kHz
  142. Frame rate                               : 93.750 FPS (512 SPF)
  143. Bit depth                                : 16 bits
  144. Compression mode                         : Lossless / Lossy
  145. Stream size                              : 2.42 GiB (3%)
  146. Title                                    : Bad.Boys.II.2003.2160p.BluRay.REMUX.HEVC.DTS-HD.MA.TrueHD.7.1.Atmos-FGT
  147. Language                                 : French
  148. Default                                  : No
  149. Forced                                   : No

  150. Audio #7
  151. ID                                       : 8
  152. Format                                   : DTS
  153. Format/Info                              : Digital Theater Systems
  154. Format profile                           : MA / Core
  155. Codec ID                                 : A_DTS
  156. Duration                                 : 2 h 26 min
  157. Bit rate mode                            : Variable / Constant
  158. Bit rate                                 : 2 318 kb/s / 1 509 kb/s
  159. Channel(s)                               : 6 channels
  160. Channel positions                        : Front: L C R, Side: L R, LFE
  161. Sampling rate                            : 48.0 kHz
  162. Frame rate                               : 93.750 FPS (512 SPF)
  163. Bit depth                                : 16 bits
  164. Compression mode                         : Lossless / Lossy
  165. Stream size                              : 2.38 GiB (3%)
  166. Title                                    : Bad.Boys.II.2003.2160p.BluRay.REMUX.HEVC.DTS-HD.MA.TrueHD.7.1.Atmos-FGT
  167. Language                                 : German
  168. Default                                  : No
  169. Forced                                   : No

  170. Audio #8
  171. ID                                       : 9
  172. Format                                   : AC-3
  173. Format/Info                              : Audio Coding 3
  174. Codec ID                                 : A_AC3
  175. Duration                                 : 2 h 26 min
  176. Bit rate mode                            : Constant
  177. Bit rate                                 : 640 kb/s
  178. Channel(s)                               : 6 channels
  179. Channel positions                        : Front: L C R, Side: L R, LFE
  180. Sampling rate                            : 48.0 kHz
  181. Frame rate                               : 31.250 FPS (1536 SPF)
  182. Bit depth                                : 16 bits
  183. Compression mode                         : Lossy

  184. Stream size                              : 672 MiB (1%)
  185. Title                                    : Bad.Boys.II.2003.2160p.BluRay.REMUX.HEVC.DTS-HD.MA.TrueHD.7.1.Atmos-FGT
  186. Language                                 : Hungarian
  187. Service kind                             : Complete Main
  188. Default                                  : No
  189. Forced                                   : No

  190. Audio #9
  191. ID                                       : 10
  192. Format                                   : DTS
  193. Format/Info                              : Digital Theater Systems
  194. Format profile                           : MA / Core
  195. Codec ID                                 : A_DTS
  196. Duration                                 : 2 h 26 min
  197. Bit rate mode                            : Variable / Constant
  198. Bit rate                                 : 2 369 kb/s / 1 509 kb/s
  199. Channel(s)                               : 6 channels
  200. Channel positions                        : Front: L C R, Side: L R, LFE
  201. Sampling rate                            : 48.0 kHz
  202. Frame rate                               : 93.750 FPS (512 SPF)
  203. Bit depth                                : 16 bits
  204. Compression mode                         : Lossless / Lossy
  205. Stream size                              : 2.43 GiB (3%)
  206. Title                                    : Bad.Boys.II.2003.2160p.BluRay.REMUX.HEVC.DTS-HD.MA.TrueHD.7.1.Atmos-FGT
  207. Language                                 : Italian
  208. Default                                  : No
  209. Forced                                   : No

  210. Audio #10
  211. ID                                       : 11
  212. Format                                   : DTS
  213. Format/Info                              : Digital Theater Systems
  214. Format profile                           : MA / Core
  215. Codec ID                                 : A_DTS
  216. Duration                                 : 2 h 26 min
  217. Bit rate mode                            : Variable / Constant
  218. Bit rate                                 : 2 393 kb/s / 1 509 kb/s
  219. Channel(s)                               : 6 channels
  220. Channel positions                        : Front: L C R, Side: L R, LFE
  221. Sampling rate                            : 48.0 kHz
  222. Frame rate                               : 93.750 FPS (512 SPF)
  223. Bit depth                                : 16 bits
  224. Compression mode                         : Lossless / Lossy
  225. Stream size                              : 2.45 GiB (3%)
  226. Title                                    : Bad.Boys.II.2003.2160p.BluRay.REMUX.HEVC.DTS-HD.MA.TrueHD.7.1.Atmos-FGT
  227. Language                                 : Japanese
  228. Default                                  : No
  229. Forced                                   : No

  230. Audio #11
  231. ID                                       : 12
  232. Format                                   : AC-3
  233. Format/Info                              : Audio Coding 3
  234. Codec ID                                 : A_AC3
  235. Duration                                 : 2 h 26 min
  236. Bit rate mode                            : Constant
  237. Bit rate                                 : 640 kb/s
  238. Channel(s)                               : 6 channels
  239. Channel positions                        : Front: L C R, Side: L R, LFE
  240. Sampling rate                            : 48.0 kHz
  241. Frame rate                               : 31.250 FPS (1536 SPF)
  242. Bit depth                                : 16 bits
  243. Compression mode                         : Lossy

  244. Stream size                              : 672 MiB (1%)
  245. Title                                    : Bad.Boys.II.2003.2160p.BluRay.REMUX.HEVC.DTS-HD.MA.TrueHD.7.1.Atmos-FGT
  246. Language                                 : Polish
  247. Service kind                             : Complete Main
  248. Default                                  : No
  249. Forced                                   : No

  250. Audio #12
  251. ID                                       : 13
  252. Format                                   : AC-3
  253. Format/Info                              : Audio Coding 3
  254. Codec ID                                 : A_AC3
  255. Duration                                 : 2 h 26 min
  256. Bit rate mode                            : Constant
  257. Bit rate                                 : 640 kb/s
  258. Channel(s)                               : 6 channels
  259. Channel positions                        : Front: L C R, Side: L R, LFE
  260. Sampling rate                            : 48.0 kHz
  261. Frame rate                               : 31.250 FPS (1536 SPF)
  262. Bit depth                                : 16 bits
  263. Compression mode                         : Lossy

  264. Stream size                              : 672 MiB (1%)
  265. Title                                    : Bad.Boys.II.2003.2160p.BluRay.REMUX.HEVC.DTS-HD.MA.TrueHD.7.1.Atmos-FGT
  266. Language                                 : Portuguese
  267. Service kind                             : Complete Main
  268. Default                                  : No
  269. Forced                                   : No

  270. Audio #13
  271. ID                                       : 14
  272. Format                                   : AC-3
  273. Format/Info                              : Audio Coding 3
  274. Codec ID                                 : A_AC3
  275. Duration                                 : 2 h 26 min
  276. Bit rate mode                            : Constant
  277. Bit rate                                 : 640 kb/s
  278. Channel(s)                               : 6 channels
  279. Channel positions                        : Front: L C R, Side: L R, LFE
  280. Sampling rate                            : 48.0 kHz
  281. Frame rate                               : 31.250 FPS (1536 SPF)
  282. Bit depth                                : 16 bits
  283. Compression mode                         : Lossy

  284. Stream size                              : 672 MiB (1%)
  285. Title                                    : Bad.Boys.II.2003.2160p.BluRay.REMUX.HEVC.DTS-HD.MA.TrueHD.7.1.Atmos-FGT
  286. Language                                 : Russian
  287. Service kind                             : Complete Main
  288. Default                                  : No
  289. Forced                                   : No

  290. Audio #14
  291. ID                                       : 15
  292. Format                                   : AC-3
  293. Format/Info                              : Audio Coding 3
  294. Codec ID                                 : A_AC3
  295. Duration                                 : 2 h 26 min
  296. Bit rate mode                            : Constant
  297. Bit rate                                 : 640 kb/s
  298. Channel(s)                               : 6 channels
  299. Channel positions                        : Front: L C R, Side: L R, LFE
  300. Sampling rate                            : 48.0 kHz
  301. Frame rate                               : 31.250 FPS (1536 SPF)
  302. Bit depth                                : 16 bits
  303. Compression mode                         : Lossy

  304. Stream size                              : 672 MiB (1%)
  305. Title                                    : Bad.Boys.II.2003.2160p.BluRay.REMUX.HEVC.DTS-HD.MA.TrueHD.7.1.Atmos-FGT
  306. Language                                 : Spanish
  307. Service kind                             : Complete Main
  308. Default                                  : No
  309. Forced                                   : No

  310. Audio #15
  311. ID                                       : 16
  312. Format                                   : AC-3
  313. Format/Info                              : Audio Coding 3
  314. Codec ID                                 : A_AC3
  315. Duration                                 : 2 h 26 min
  316. Bit rate mode                            : Constant
  317. Bit rate                                 : 640 kb/s
  318. Channel(s)                               : 6 channels
  319. Channel positions                        : Front: L C R, Side: L R, LFE
  320. Sampling rate                            : 48.0 kHz
  321. Frame rate                               : 31.250 FPS (1536 SPF)
  322. Bit depth                                : 16 bits
  323. Compression mode                         : Lossy

  324. Stream size                              : 672 MiB (1%)
  325. Title                                    : Bad.Boys.II.2003.2160p.BluRay.REMUX.HEVC.DTS-HD.MA.TrueHD.7.1.Atmos-FGT
  326. Language                                 : Spanish
  327. Service kind                             : Complete Main
  328. Default                                  : No
  329. Forced                                   : No

  330. Audio #16
  331. ID                                       : 17
  332. Format                                   : AC-3
  333. Format/Info                              : Audio Coding 3
  334. Codec ID                                 : A_AC3
  335. Duration                                 : 2 h 26 min
  336. Bit rate mode                            : Constant
  337. Bit rate                                 : 192 kb/s
  338. Channel(s)                               : 2 channels
  339. Channel positions                        : Front: L R
  340. Sampling rate                            : 48.0 kHz
  341. Frame rate                               : 31.250 FPS (1536 SPF)
  342. Bit depth                                : 16 bits
  343. Compression mode                         : Lossy

  344. Stream size                              : 202 MiB (0%)
  345. Title                                    : Bad.Boys.II.2003.2160p.BluRay.REMUX.HEVC.DTS-HD.MA.TrueHD.7.1.Atmos-FGT
  346. Language                                 : Tamil
  347. Service kind                             : Complete Main
  348. Default                                  : No
  349. Forced                                   : No

  350. Audio #17
  351. ID                                       : 18
  352. Format                                   : AC-3
  353. Format/Info                              : Audio Coding 3
  354. Codec ID                                 : A_AC3
  355. Duration                                 : 2 h 26 min
  356. Bit rate mode                            : Constant
  357. Bit rate                                 : 192 kb/s
  358. Channel(s)                               : 2 channels
  359. Channel positions                        : Front: L R
  360. Sampling rate                            : 48.0 kHz
  361. Frame rate                               : 31.250 FPS (1536 SPF)
  362. Bit depth                                : 16 bits
  363. Compression mode                         : Lossy

  364. Stream size                              : 202 MiB (0%)
  365. Title                                    : Bad.Boys.II.2003.2160p.BluRay.REMUX.HEVC.DTS-HD.MA.TrueHD.7.1.Atmos-FGT
  366. Language                                 : Telugu
  367. Service kind                             : Complete Main
  368. Default                                  : No
  369. Forced                                   : No

  370. Audio #18
  371. ID                                       : 19
  372. Format                                   : AC-3
  373. Format/Info                              : Audio Coding 3
  374. Codec ID                                 : A_AC3
  375. Duration                                 : 2 h 26 min
  376. Bit rate mode                            : Constant
  377. Bit rate                                 : 640 kb/s
  378. Channel(s)                               : 6 channels
  379. Channel positions                        : Front: L C R, Side: L R, LFE
  380. Sampling rate                            : 48.0 kHz
  381. Frame rate                               : 31.250 FPS (1536 SPF)
  382. Bit depth                                : 16 bits
  383. Compression mode                         : Lossy

  384. Stream size                              : 672 MiB (1%)
  385. Title                                    : Bad.Boys.II.2003.2160p.BluRay.REMUX.HEVC.DTS-HD.MA.TrueHD.7.1.Atmos-FGT
  386. Language                                 : Thai
  387. Service kind                             : Complete Main
  388. Default                                  : No
  389. Forced                                   : No

  390. Text #1
  391. ID                                       : 20
  392. Format                                   : PGS
  393. Muxing mode                              : zlib
  394. Codec ID                                 : S_HDMV/PGS
  395. Codec ID/Info                            : Picture based subtitle format used on BDs/HD-DVDs
  396. Duration                                 : 2 h 20 min
  397. Bit rate                                 : 40.2 kb/s
  398. Count of elements                        : 3824
  399. Stream size                              : 40.3 MiB (0%)
  400. Title                                    : English-PGS
  401. Language                                 : English
  402. Default                                  : Yes
  403. Forced                                   : No

  404. Text #2
  405. ID                                       : 21
  406. Format                                   : PGS
  407. Muxing mode                              : zlib
  408. Codec ID                                 : S_HDMV/PGS
  409. Codec ID/Info                            : Picture based subtitle format used on BDs/HD-DVDs
  410. Duration                                 : 2 h 25 min
  411. Bit rate                                 : 45.3 kb/s
  412. Count of elements                        : 4518
  413. Stream size                              : 47.0 MiB (0%)
  414. Title                                    : English-SDH-PGS
  415. Language                                 : English
  416. Default                                  : No
  417. Forced                                   : No

  418. Text #3
  419. ID                                       : 22
  420. Format                                   : PGS
  421. Muxing mode                              : zlib
  422. Codec ID                                 : S_HDMV/PGS
  423. Codec ID/Info                            : Picture based subtitle format used on BDs/HD-DVDs
  424. Duration                                 : 2 h 20 min
  425. Bit rate                                 : 40.2 kb/s
  426. Count of elements                        : 3832
  427. Stream size                              : 40.3 MiB (0%)
  428. Title                                    : English-PGS
  429. Language                                 : English
  430. Default                                  : No
  431. Forced                                   : No

  432. Text #4
  433. ID                                       : 23
  434. Format                                   : PGS
  435. Muxing mode                              : zlib
  436. Codec ID                                 : S_HDMV/PGS
  437. Codec ID/Info                            : Picture based subtitle format used on BDs/HD-DVDs
  438. Duration                                 : 2 h 25 min
  439. Bit rate                                 : 45.3 kb/s
  440. Count of elements                        : 4518
  441. Stream size                              : 47.0 MiB (0%)
  442. Title                                    : English-SDH-PGS
  443. Language                                 : English
  444. Default                                  : No
  445. Forced                                   : No

  446. Text #5
  447. ID                                       : 24
  448. Format                                   : PGS
  449. Muxing mode                              : zlib
  450. Codec ID                                 : S_HDMV/PGS
  451. Codec ID/Info                            : Picture based subtitle format used on BDs/HD-DVDs
  452. Duration                                 : 2 h 21 min
  453. Bit rate                                 : 19.2 kb/s
  454. Count of elements                        : 3844
  455. Stream size                              : 19.4 MiB (0%)
  456. Title                                    : Arabic-PGS
  457. Language                                 : Arabic
  458. Default                                  : No
  459. Forced                                   : No

  460. Text #6
  461. ID                                       : 25
  462. Format                                   : PGS
  463. Muxing mode                              : zlib
  464. Codec ID                                 : S_HDMV/PGS
  465. Codec ID/Info                            : Picture based subtitle format used on BDs/HD-DVDs
  466. Duration                                 : 2 h 21 min
  467. Bit rate                                 : 26.9 kb/s
  468. Count of elements                        : 3880
  469. Stream size                              : 27.1 MiB (0%)
  470. Title                                    : Chinese-PGS
  471. Language                                 : Chinese
  472. Default                                  : No
  473. Forced                                   : No

  474. Text #7
  475. ID                                       : 26
  476. Format                                   : PGS
  477. Muxing mode                              : zlib
  478. Codec ID                                 : S_HDMV/PGS
  479. Codec ID/Info                            : Picture based subtitle format used on BDs/HD-DVDs
  480. Duration                                 : 2 h 21 min
  481. Bit rate                                 : 28.2 kb/s
  482. Count of elements                        : 3822
  483. Stream size                              : 28.5 MiB (0%)
  484. Title                                    : Croatian-PGS
  485. Language                                 : Croatian
  486. Default                                  : No
  487. Forced                                   : No

  488. Text #8
  489. ID                                       : 27
  490. Format                                   : PGS
  491. Muxing mode                              : zlib
  492. Codec ID                                 : S_HDMV/PGS
  493. Codec ID/Info                            : Picture based subtitle format used on BDs/HD-DVDs
  494. Duration                                 : 2 h 21 min
  495. Bit rate                                 : 31.6 kb/s
  496. Count of elements                        : 3782
  497. Stream size                              : 31.9 MiB (0%)
  498. Title                                    : Czech-PGS
  499. Language                                 : Czech
  500. Default                                  : No
  501. Forced                                   : No

  502. Text #9
  503. ID                                       : 28
  504. Format                                   : PGS
  505. Muxing mode                              : zlib
  506. Codec ID                                 : S_HDMV/PGS
  507. Codec ID/Info                            : Picture based subtitle format used on BDs/HD-DVDs
  508. Duration                                 : 2 h 21 min
  509. Bit rate                                 : 31.3 kb/s
  510. Count of elements                        : 3286
  511. Stream size                              : 31.6 MiB (0%)
  512. Title                                    : Danish-PGS
  513. Language                                 : Danish
  514. Default                                  : No
  515. Forced                                   : No

  516. Text #10
  517. ID                                       : 29
  518. Format                                   : PGS
  519. Muxing mode                              : zlib
  520. Codec ID                                 : S_HDMV/PGS
  521. Codec ID/Info                            : Picture based subtitle format used on BDs/HD-DVDs
  522. Duration                                 : 2 h 20 min
  523. Bit rate                                 : 30.7 kb/s
  524. Count of elements                        : 2647
  525. Stream size                              : 30.9 MiB (0%)
  526. Title                                    : Dutch-PGS
  527. Language                                 : Dutch
  528. Default                                  : No
  529. Forced                                   : No

  530. Text #11
  531. ID                                       : 30
  532. Format                                   : PGS
  533. Muxing mode                              : zlib
  534. Codec ID                                 : S_HDMV/PGS
  535. Codec ID/Info                            : Picture based subtitle format used on BDs/HD-DVDs
  536. Duration                                 : 2 h 21 min
  537. Bit rate                                 : 30.1 kb/s
  538. Count of elements                        : 2982
  539. Stream size                              : 30.4 MiB (0%)
  540. Title                                    : Finnish-PGS
  541. Language                                 : Finnish
  542. Default                                  : No
  543. Forced                                   : No

  544. Text #12
  545. ID                                       : 31
  546. Format                                   : PGS
  547. Muxing mode                              : zlib
  548. Codec ID                                 : S_HDMV/PGS
  549. Codec ID/Info                            : Picture based subtitle format used on BDs/HD-DVDs
  550. Duration                                 : 2 h 25 min
  551. Bit rate                                 : 27.0 kb/s
  552. Count of elements                        : 3586
  553. Stream size                              : 28.1 MiB (0%)
  554. Title                                    : French-PGS
  555. Language                                 : French
  556. Default                                  : No
  557. Forced                                   : No

  558. Text #13
  559. ID                                       : 32
  560. Format                                   : PGS
  561. Muxing mode                              : zlib
  562. Codec ID                                 : S_HDMV/PGS
  563. Codec ID/Info                            : Picture based subtitle format used on BDs/HD-DVDs
  564. Duration                                 : 2 h 21 min
  565. Bit rate                                 : 44.1 kb/s
  566. Count of elements                        : 3951
  567. Stream size                              : 44.5 MiB (0%)
  568. Title                                    : German-PGS
  569. Language                                 : German
  570. Default                                  : No
  571. Forced                                   : No

  572. Text #14
  573. ID                                       : 33
  574. Format                                   : PGS
  575. Muxing mode                              : zlib
  576. Codec ID                                 : S_HDMV/PGS
  577. Codec ID/Info                            : Picture based subtitle format used on BDs/HD-DVDs
  578. Duration                                 : 2 h 21 min
  579. Bit rate                                 : 35.3 kb/s
  580. Count of elements                        : 3738
  581. Stream size                              : 35.6 MiB (0%)
  582. Title                                    : Greek-PGS
  583. Language                                 : Greek
  584. Default                                  : No
  585. Forced                                   : No

  586. Text #15
  587. ID                                       : 34
  588. Format                                   : PGS
  589. Muxing mode                              : zlib
  590. Codec ID                                 : S_HDMV/PGS
  591. Codec ID/Info                            : Picture based subtitle format used on BDs/HD-DVDs
  592. Duration                                 : 2 h 20 min
  593. Bit rate                                 : 29.4 kb/s
  594. Count of elements                        : 3838
  595. Stream size                              : 29.6 MiB (0%)
  596. Title                                    : Hebrew-PGS
  597. Language                                 : Hebrew
  598. Default                                  : No
  599. Forced                                   : No

  600. Text #16
  601. ID                                       : 35
  602. Format                                   : PGS
  603. Muxing mode                              : zlib
  604. Codec ID                                 : S_HDMV/PGS
  605. Codec ID/Info                            : Picture based subtitle format used on BDs/HD-DVDs
  606. Duration                                 : 2 h 21 min
  607. Bit rate                                 : 27.6 kb/s
  608. Count of elements                        : 3846
  609. Stream size                              : 27.8 MiB (0%)
  610. Title                                    : Hungarian-PGS
  611. Language                                 : Hungarian
  612. Default                                  : No
  613. Forced                                   : No

  614. Text #17
  615. ID                                       : 36
  616. Format                                   : PGS
  617. Muxing mode                              : zlib
  618. Codec ID                                 : S_HDMV/PGS
  619. Codec ID/Info                            : Picture based subtitle format used on BDs/HD-DVDs
  620. Duration                                 : 2 h 20 min
  621. Bit rate                                 : 36.5 kb/s
  622. Count of elements                        : 3822
  623. Stream size                              : 36.8 MiB (0%)
  624. Title                                    : Italian-PGS
  625. Language                                 : Italian
  626. Default                                  : No
  627. Forced                                   : No

  628. Text #18
  629. ID                                       : 37
  630. Format                                   : PGS
  631. Muxing mode                              : zlib
  632. Codec ID                                 : S_HDMV/PGS
  633. Codec ID/Info                            : Picture based subtitle format used on BDs/HD-DVDs
  634. Duration                                 : 2 h 20 min
  635. Bit rate                                 : 27.2 kb/s
  636. Count of elements                        : 4193
  637. Stream size                              : 27.4 MiB (0%)
  638. Title                                    : Japanese-pGS
  639. Language                                 : Japanese
  640. Default                                  : No
  641. Forced                                   : No

  642. Text #19
  643. ID                                       : 38
  644. Format                                   : PGS
  645. Muxing mode                              : zlib
  646. Codec ID                                 : S_HDMV/PGS
  647. Codec ID/Info                            : Picture based subtitle format used on BDs/HD-DVDs
  648. Duration                                 : 2 h 21 min
  649. Bit rate                                 : 27.2 kb/s
  650. Count of elements                        : 3874
  651. Stream size                              : 27.5 MiB (0%)
  652. Title                                    : Korean-PGS
  653. Language                                 : Korean
  654. Default                                  : No
  655. Forced                                   : No

  656. Text #20
  657. ID                                       : 39
  658. Format                                   : PGS
  659. Muxing mode                              : zlib
  660. Codec ID                                 : S_HDMV/PGS
  661. Codec ID/Info                            : Picture based subtitle format used on BDs/HD-DVDs
  662. Duration                                 : 2 h 26 min
  663. Bit rate                                 : 27.7 kb/s
  664. Count of elements                        : 3518
  665. Stream size                              : 28.9 MiB (0%)
  666. Title                                    : Norwegian-PGS
  667. Language                                 : Norwegian
  668. Default                                  : No
  669. Forced                                   : No

  670. Text #21
  671. ID                                       : 40
  672. Format                                   : PGS
  673. Muxing mode                              : zlib
  674. Codec ID                                 : S_HDMV/PGS
  675. Codec ID/Info                            : Picture based subtitle format used on BDs/HD-DVDs
  676. Duration                                 : 2 h 21 min
  677. Bit rate                                 : 31.3 kb/s
  678. Count of elements                        : 3764
  679. Stream size                              : 31.6 MiB (0%)
  680. Title                                    : Polish-PGS
  681. Language                                 : Polish
  682. Default                                  : No
  683. Forced                                   : No

  684. Text #22
  685. ID                                       : 41
  686. Format                                   : PGS
  687. Muxing mode                              : zlib
  688. Codec ID                                 : S_HDMV/PGS
  689. Codec ID/Info                            : Picture based subtitle format used on BDs/HD-DVDs
  690. Duration                                 : 2 h 21 min
  691. Bit rate                                 : 31.0 kb/s
  692. Count of elements                        : 3738
  693. Stream size                              : 31.3 MiB (0%)
  694. Title                                    : Portuguese-PGS
  695. Language                                 : Portuguese
  696. Default                                  : No
  697. Forced                                   : No

  698. Text #23
  699. ID                                       : 42
  700. Format                                   : PGS
  701. Muxing mode                              : zlib
  702. Codec ID                                 : S_HDMV/PGS
  703. Codec ID/Info                            : Picture based subtitle format used on BDs/HD-DVDs
  704. Duration                                 : 2 h 26 min
  705. Bit rate                                 : 38.2 kb/s
  706. Count of elements                        : 3792
  707. Stream size                              : 39.9 MiB (0%)
  708. Title                                    : Portuguese-PGS
  709. Language                                 : Portuguese
  710. Default                                  : No
  711. Forced                                   : No

  712. Text #24
  713. ID                                       : 43
  714. Format                                   : PGS
  715. Muxing mode                              : zlib
  716. Codec ID                                 : S_HDMV/PGS
  717. Codec ID/Info                            : Picture based subtitle format used on BDs/HD-DVDs
  718. Duration                                 : 2 h 21 min
  719. Bit rate                                 : 31.0 kb/s
  720. Count of elements                        : 3554
  721. Stream size                              : 31.3 MiB (0%)
  722. Title                                    : Romanian-PGS
  723. Language                                 : Romanian
  724. Default                                  : No
  725. Forced                                   : No

  726. Text #25
  727. ID                                       : 44
  728. Format                                   : PGS
  729. Muxing mode                              : zlib
  730. Codec ID                                 : S_HDMV/PGS
  731. Codec ID/Info                            : Picture based subtitle format used on BDs/HD-DVDs
  732. Duration                                 : 2 h 21 min
  733. Bit rate                                 : 41.9 kb/s
  734. Count of elements                        : 3964
  735. Stream size                              : 42.3 MiB (0%)
  736. Title                                    : Russian-PGS
  737. Language                                 : Russian
  738. Default                                  : No
  739. Forced                                   : No

  740. Text #26
  741. ID                                       : 45
  742. Format                                   : PGS
  743. Muxing mode                              : zlib
  744. Codec ID                                 : S_HDMV/PGS
  745. Codec ID/Info                            : Picture based subtitle format used on BDs/HD-DVDs
  746. Duration                                 : 2 h 21 min
  747. Bit rate                                 : 34.3 kb/s
  748. Count of elements                        : 3952
  749. Stream size                              : 34.6 MiB (0%)
  750. Title                                    : Spanish-PGS
  751. Language                                 : Spanish
  752. Default                                  : No
  753. Forced                                   : No

  754. Text #27
  755. ID                                       : 46
  756. Format                                   : PGS
  757. Muxing mode                              : zlib
  758. Codec ID                                 : S_HDMV/PGS
  759. Codec ID/Info                            : Picture based subtitle format used on BDs/HD-DVDs
  760. Duration                                 : 2 h 21 min
  761. Bit rate                                 : 37.3 kb/s
  762. Count of elements                        : 3904
  763. Stream size                              : 37.6 MiB (0%)
  764. Title                                    : Spanish-PGS
  765. Language                                 : Spanish
  766. Default                                  : No
  767. Forced                                   : No

  768. Text #28
  769. ID                                       : 47
  770. Format                                   : PGS
  771. Muxing mode                              : zlib
  772. Codec ID                                 : S_HDMV/PGS
  773. Codec ID/Info                            : Picture based subtitle format used on BDs/HD-DVDs
  774. Duration                                 : 2 h 25 min
  775. Bit rate                                 : 29.1 kb/s
  776. Count of elements                        : 3391
  777. Stream size                              : 30.3 MiB (0%)
  778. Title                                    : Swedish-PGS
  779. Language                                 : Swedish
  780. Default                                  : No
  781. Forced                                   : No

  782. Text #29
  783. ID                                       : 48
  784. Format                                   : PGS
  785. Muxing mode                              : zlib
  786. Codec ID                                 : S_HDMV/PGS
  787. Codec ID/Info                            : Picture based subtitle format used on BDs/HD-DVDs
  788. Duration                                 : 2 h 21 min
  789. Bit rate                                 : 34.0 kb/s
  790. Count of elements                        : 3874
  791. Stream size                              : 34.3 MiB (0%)
  792. Title                                    : Thai-PGS
  793. Language                                 : Thai
  794. Default                                  : No
  795. Forced                                   : No

  796. Text #30
  797. ID                                       : 49
  798. Format                                   : PGS
  799. Muxing mode                              : zlib
  800. Codec ID                                 : S_HDMV/PGS
  801. Codec ID/Info                            : Picture based subtitle format used on BDs/HD-DVDs
  802. Duration                                 : 2 h 21 min
  803. Bit rate                                 : 38.0 kb/s
  804. Count of elements                        : 3868
  805. Stream size                              : 38.4 MiB (0%)
  806. Title                                    : Turkish-PGS
  807. Language                                 : Turkish
  808. Default                                  : No
  809. Forced                                   : No

  810. Text #31
  811. ID                                       : 50
  812. Format                                   : PGS
  813. Muxing mode                              : zlib
  814. Codec ID                                 : S_HDMV/PGS
  815. Codec ID/Info                            : Picture based subtitle format used on BDs/HD-DVDs
  816. Duration                                 : 57 min 30 s
  817. Bit rate                                 : 239 b/s
  818. Count of elements                        : 14
  819. Stream size                              : 101 KiB (0%)
  820. Title                                    : French-FORCED-PGS
  821. Language                                 : French
  822. Default                                  : No
  823. Forced                                   : No

  824. Text #32
  825. ID                                       : 51
  826. Format                                   : PGS
  827. Muxing mode                              : zlib
  828. Codec ID                                 : S_HDMV/PGS
  829. Codec ID/Info                            : Picture based subtitle format used on BDs/HD-DVDs
  830. Duration                                 : 1 h 34 min
  831. Bit rate                                 : 288 b/s
  832. Count of elements                        : 26
  833. Stream size                              : 200 KiB (0%)
  834. Title                                    : Japanese-FORCED-PGS
  835. Language                                 : Japanese
  836. Default                                  : No
  837. Forced                                   : No

  838. Menu
  839. 00:00:00.000                             : :Chapter 1
  840. 00:11:05.498                             : :Chapter 2
  841. 00:21:55.397                             : :Chapter 3
  842. 00:39:55.768                             : :Chapter 4
  843. 00:45:28.684                             : :Chapter 5
  844. 00:53:28.788                             : :Chapter 6
  845. 00:59:02.247                             : :Chapter 7
  846. 01:06:27.066                             : :Chapter 8
  847. 01:11:29.618                             : :Chapter 9
  848. 01:17:54.169                             : :Chapter 10
  849. 01:30:28.131                             : :Chapter 11
  850. 01:37:39.228                             : :Chapter 12
  851. 01:45:54.765                             : :Chapter 13
  852. 01:56:47.625                             : :Chapter 14
  853. 02:05:08.584                             : :Chapter 15
  854. 02:16:07.701                             : :Chapter 16
复制代码

复制代码








回复

使用道具 举报

懒得打字嘛,点击右侧快捷回复 【右侧内容,后台自定义】
您需要登录后才可以回帖 登录 | 立即加入

本版积分规则

Archiver|小黑屋| 蓝光电影网 |网站地图

Copyright © 2021 Comsenz Inc. Powered by 蓝光电影网

蓝光电影网

本站内容由用户自主分享和转载自互联网,转载目的在于传递更多信息,并不代表本网赞同其观点和对其真实性负责。

如有侵权、违反国家法律政策行为,请联系我们,我们会第一时间及时清除和处理!

举报反馈邮箱:[email protected]

快速回复 返回顶部 返回列表