找回密码

蓝光电影网

查看: 1380|回复: 6

遗传厄运/宿怨 Hereditary.2018.2160p.BluRay.x264.8bit.SDR.DTS-HD.MA.5.1-SWTYBLZ 36.35GB

[复制链接]
蓝光币
623
发表于 2018-9-9 23:08:44 | 显示全部楼层 |阅读模式

遗传恶运/宿怨 Hereditary.2018.2160p.BluRay.x264.8bit.SDR.DTS-HD.MA.5.1-SWTYBLZ 36.35GB-1.jpg
◎译  名 遗传恶运/宿怨(台)/祖孽(港)/恶运遗传
◎片  名 Hereditary
◎年  代 2018
◎产  地 美国
◎类  别 悬疑/惊悚/可骇
◎语  言 英语
◎上映日期 2018-01-21(圣丹斯电影节)/2018-06-08(美国)
◎豆瓣评分 7.2/10 from 34,514 users
◎豆瓣链接 https://movie.douban.com/subject/27621727/
◎片  长 127分钟
◎导  演 阿里·艾斯特 Ari Aster
◎主  演 亚历克斯·沃尔夫 Alex Wolff
      加布里埃尔·伯恩 Gabriel Byrne
      托妮·科莱特 Toni Collette
      米莉·夏普洛 Milly Shapiro
      克里斯蒂·萨默海斯 Christy Summerhays
      摩根·伦德 Morgan Lund
      马洛里·贝克特尔 Mallory Bechtel
      杰克·布朗 Jake Brown
      布赖恩·拉谢尔 BriAnn Rachele
      海蒂·门德兹 Heidi Méndez
      莫伊塞斯 L·托瓦 Moises L. Tovar
      贾罗德·菲利普斯 Jarrod Phillips
      安·唐德 Ann Dowd
      布罗克·麦金尼 Brock McKinney
      扎克瑞·亚瑟 Zachary Arthur
      奥斯丁·R·格兰特 Austin R. Grant

◎简  介

  安妮(托妮·科莱特 Toni Collette 饰)和丈夫史蒂文(加布里埃尔·伯恩 Gabriel Byrne 饰)带着大儿子皮特(亚历克斯·沃尔夫 Alex Wolff 饰)生活,他们的小女儿查理(米莉·夏普洛 Milly Shapiro 饰)则交由安妮的母亲艾伦抚养 。现实上,安妮和母亲之间的关系非常冷淡,艾伦归天后,查理重新回到了怙恃的身旁。
  自从查理回家以后,家里便起头持续不断的发生诡异的事务。奥秘的图腾,陌生的姓名以及神出鬼没的不速之客让这个家庭被覆盖在压制的氛围当中。由于皮特的疏忽,一场车祸夺走了查理的人命,查理的死加速了各家庭成员之间的割裂,在安妮最失望的日子里,一个名叫乔安(安·唐德 Ann Dowd 饰)的女人出现在了她的身旁,她宣称自己具有可以呼唤灵魂的特异功用。

  1. Video
  2. ID                                       : 1
  3. Format                                   : AVC
  4. Format/Info                              : Advanced Video Codec
  5. Format profile                           : [url=/cdn-cgi/l/email-protection][email protected][/url]
  6. Format settings                          : CABAC / 5 Ref Frames
  7. Format settings, CABAC                   : Yes
  8. Format settings, RefFrames               : 5 frames
  9. Codec ID                                 : V_MPEG4/ISO/AVC
  10. Duration                                 : 2 h 7 min
  11. Bit rate                                 : 36.7 Mb/s
  12. Width                                    : 3 840 pixels
  13. Height                                   : 1 920 pixels
  14. Display aspect ratio                     : 2.000
  15. Frame rate mode                          : Constant
  16. Frame rate                               : 23.976 (24000/1001) FPS
  17. Color space                              : YUV
  18. Chroma subsampling                       : 4:2:0
  19. Bit depth                                : 8 bits
  20. Scan type                                : Progressive
  21. Bits/(Pixel*Frame)                       : 0.208
  22. Stream size                              : 32.7 GiB (90%)
  23. Title                                    : Hereditary.2018.2160p.BluRay.x264.8bit.SDR.DTS-HD.MA.5.1-SWTYBLZ
  24. Writing library                          : x264 core 155 r2901 7d0ff22
  25. Encoding settings                        : cabac=1 / ref=5 / deblock=1:-1:-1 / analyse=0x3:0x113 / me=umh / subme=10 / psy=1 / psy_rd=1.00:0.15 / mixed_ref=1 / me_range=48 / chroma_me=1 / trellis=2 / 8x8dct=1 / cqm=0 / deadzone=21,11 / fast_pskip=1 / chroma_qp_offset=-3 / threads=60 / lookahead_threads=5 / sliced_threads=0 / nr=0 / decimate=0 / interlaced=0 / bluray_compat=0 / constrained_intra=0 / bframes=3 / b_pyramid=2 / b_adapt=2 / b_bias=0 / direct=3 / weightb=1 / open_gop=0 / weightp=2 / keyint=250 / keyint_min=23 / scenecut=40 / intra_refresh=0 / rc_lookahead=50 / rc=crf / mbtree=1 / crf=18.0 / qcomp=0.60 / qpmin=0 / qpmax=69 / qpstep=4 / ip_ratio=1.40 / aq=1:1.00
  26. Language                                 : English
  27. Default                                  : Yes
  28. Forced                                   : No

  29. Audio #1
  30. ID                                       : 2
  31. Format                                   : DTS
  32. Format/Info                              : Digital Theater Systems
  33. Format profile                           : MA / Core
  34. Codec ID                                 : A_DTS
  35. Duration                                 : 2 h 7 min
  36. Bit rate mode                            : Variable / Constant
  37. Bit rate                                 : 3 375 kb/s / 1 509 kb/s
  38. Channel(s)                               : 6 channels
  39. Channel positions                        : Front: L C R, Side: L R, LFE
  40. Sampling rate                            : 48.0 kHz
  41. Frame rate                               : 93.750 FPS (512 SPF)
  42. Bit depth                                : 24 bits
  43. Compression mode                         : Lossless / Lossy
  44. Stream size                              : 3.00 GiB (8%)
  45. Title                                    : Hereditary.2018.2160p.BluRay.x264.8bit.SDR.DTS-HD.MA.5.1-SWTYBLZ
  46. Language                                 : English
  47. Default                                  : Yes
  48. Forced                                   : No

  49. Audio #2
  50. ID                                       : 3
  51. Format                                   : AC-3
  52. Format/Info                              : Audio Coding 3
  53. Codec ID                                 : A_AC3
  54. Duration                                 : 2 h 7 min
  55. Bit rate mode                            : Constant
  56. Bit rate                                 : 640 kb/s
  57. Channel(s)                               : 6 channels
  58. Channel positions                        : Front: L C R, Side: L R, LFE
  59. Sampling rate                            : 48.0 kHz
  60. Frame rate                               : 31.250 FPS (1536 SPF)
  61. Bit depth                                : 16 bits
  62. Compression mode                         : Lossy
  63. Stream size                              : 583 MiB (2%)
  64. Title                                    : Hereditary.2018.2160p.BluRay.x264.8bit.SDR.DTS-HD.MA.5.1-SWTYBLZ
  65. Language                                 : English
  66. Service kind                             : Complete Main
  67. Default                                  : No
  68. Forced                                   : No

  69. Text #1
  70. ID                                       : 4
  71. Format                                   : UTF-8
  72. Codec ID                                 : S_TEXT/UTF8
  73. Codec ID/Info                            : UTF-8 Plain Text
  74. Duration                                 : 2 h 0 min
  75. Bit rate                                 : 33 b/s
  76. Count of elements                        : 1008
  77. Stream size                              : 29.3 KiB (0%)
  78. Title                                    : English-SRT
  79. Language                                 : English
  80. Default                                  : Yes
  81. Forced                                   : No

  82. Text #2
  83. ID                                       : 5
  84. Format                                   : PGS
  85. Muxing mode                              : zlib
  86. Codec ID                                 : S_HDMV/PGS
  87. Codec ID/Info                            : Picture based subtitle format used on BDs/HD-DVDs
  88. Duration                                 : 2 h 0 min
  89. Bit rate                                 : 28.0 kb/s
  90. Count of elements                        : 2494
  91. Stream size                              : 24.1 MiB (0%)
  92. Title                                    : English-PGS
  93. Language                                 : English
  94. Default                                  : No
  95. Forced                                   : No

  96. Text #3
  97. ID                                       : 6
  98. Format                                   : PGS
  99. Muxing mode                              : zlib
  100. Codec ID                                 : S_HDMV/PGS
  101. Codec ID/Info                            : Picture based subtitle format used on BDs/HD-DVDs
  102. Duration                                 : 2 h 6 min
  103. Bit rate                                 : 20.6 kb/s
  104. Count of elements                        : 1880
  105. Stream size                              : 18.6 MiB (0%)
  106. Title                                    : Spanish-PGS
  107. Language                                 : Spanish
  108. Default                                  : No
  109. Forced                                   : No

  110. Menu
  111. 00:00:00.000                             : :Chapter 1
  112. 00:06:03.321                             : :Chapter 2
  113. 00:13:34.146                             : :Chapter 3
  114. 00:23:01.129                             : :Chapter 4
  115. 00:26:31.172                             : :Chapter 5
  116. 00:34:57.762                             : :Chapter 6
  117. 00:40:56.495                             : :Chapter 7
  118. 00:47:23.090                             : :Chapter 8
  119. 00:54:34.396                             : :Chapter 9
  120. 01:04:02.880                             : :Chapter 10
  121. 01:08:55.631                             : :Chapter 11
  122. 01:19:35.854                             : :Chapter 12
  123. 01:25:09.395                             : :Chapter 13
  124. 01:32:50.314                             : :Chapter 14
  125. 01:40:01.412                             : :Chapter 15
  126. 01:53:21.377                             : :Chapter 16
复制代码

复制代码

遗传恶运/宿怨 Hereditary.2018.2160p.BluRay.x264.8bit.SDR.DTS-HD.MA.5.1-SWTYBLZ 36.35GB-2.png 遗传恶运/宿怨 Hereditary.2018.2160p.BluRay.x264.8bit.SDR.DTS-HD.MA.5.1-SWTYBLZ 36.35GB-3.png 遗传恶运/宿怨 Hereditary.2018.2160p.BluRay.x264.8bit.SDR.DTS-HD.MA.5.1-SWTYBLZ 36.35GB-4.png 遗传恶运/宿怨 Hereditary.2018.2160p.BluRay.x264.8bit.SDR.DTS-HD.MA.5.1-SWTYBLZ 36.35GB-5.png 遗传恶运/宿怨 Hereditary.2018.2160p.BluRay.x264.8bit.SDR.DTS-HD.MA.5.1-SWTYBLZ 36.35GB-6.png 遗传恶运/宿怨 Hereditary.2018.2160p.BluRay.x264.8bit.SDR.DTS-HD.MA.5.1-SWTYBLZ 36.35GB-7.png 遗传恶运/宿怨 Hereditary.2018.2160p.BluRay.x264.8bit.SDR.DTS-HD.MA.5.1-SWTYBLZ 36.35GB-8.png






回复

使用道具 举报

蓝光币
3738
发表于 2018-10-26 00:22:32 | 显示全部楼层
谢谢楼主分享
回复 支持 反对

使用道具 举报

懒得打字嘛,点击右侧快捷回复 【右侧内容,后台自定义】
您需要登录后才可以回帖 登录 | 立即加入

本版积分规则

Archiver|小黑屋| 蓝光电影网 |网站地图

Copyright © 2021 Comsenz Inc. Powered by 蓝光电影网

蓝光电影网

本站内容由用户自主分享和转载自互联网,转载目的在于传递更多信息,并不代表本网赞同其观点和对其真实性负责。

如有侵权、违反国家法律政策行为,请联系我们,我们会第一时间及时清除和处理!

举报反馈邮箱:[email protected]

快速回复 返回顶部 返回列表