找回密码

蓝光电影网

查看: 1557|回复: 1

瞒天过海:美人计/女版十一罗汉 Oceans.Eight.2018.2160p.BluRay.x265.10bit.HDR.DTS-HD.MA.TrueHD.7.1.Atmos-SWTYBLZ 19.98GB

[复制链接]
蓝光币
623
发表于 2018-9-9 23:09:04 | 显示全部楼层 |阅读模式

瞒天过海:美人计/女版十一罗汉 Oceans.Eight.2018.2160p.BluRay.x265.10bit.HDR.DTS-HD.MA.TrueHD.7.1.Atmos-SWTYBLZ 19.98GB-1.jpg
◎译  名 瞒天过海:美人计/女版十一罗汉/瞒天过海:八面玲珑(台)/盗海豪情:8美千娇(港)/八罗汉/八大罗汉/侠盗英姿/盗海姐妹团
◎片  名 Ocean's Eight
◎年  代 2018
◎产  地 美国
◎类  别 笑剧/犯罪
◎语  言 英语/德语/法语/汉语普通话
◎上映日期 2018-06-08(美国)
◎豆瓣评分 6.8/10 from 59,562 users
◎豆瓣链接 https://movie.douban.com/subject/26654269/
◎片  长 110分钟
◎导  演 盖瑞·罗斯 Gary Ross
◎主  演 桑德拉·布洛克 Sandra Bullock
      凯特·布兰切特 Cate Blanchett
      安妮·海瑟薇 Anne Hathaway
      海伦娜·伯翰·卡特 Helena Bonham Carter
      蕾哈娜 Rihanna
      莎拉·保罗森 Sarah Paulson
      敏迪·卡灵 Mindy Kaling
      奥卡菲娜 Awkwafina
      詹姆斯·柯登 James Corden
      理查德·阿米蒂奇 Richard Armitage
      格里芬·邓恩 Griffin Dunne
      迪德尔·古德温 Deidre Goodwin
      丹尼埃拉·拉贝尼 Daniella Rabbani
      埃利奥特·古尔德 Elliott Gould
      夏洛特·柯克 Charlotte Kirk
      达科塔·范宁 Dakota Fanning
      理查德·罗比查乌克斯 Richard Robichaux
      达米安·杨 Damian Young
      戈登·格里克 Gideon Glick
      凯特琳·梅纳 Caitlin Mehner
      詹姆斯·比贝里 James Biberi
      香农·弗雷尔 Shannon Freyer
      康纳尔·多诺万 Conor Donovan
      凯文·布朗 Kevin Brown
      马尔洛·托马斯 Marlo Thomas
      丹娜·爱薇 Dana Ivey
      玛丽·路易丝·威尔逊 Mary Louise Wilson
      伊丽莎白·阿什利 Elizabeth Ashley
      凯蒂·霍尔姆斯 Katie Holmes
      肯多尔·詹纳 Kendall Jenner
      凯莉·詹娜 Kylie Jenner
      金·卡戴珊 Kim Kardashian

◎简  介

  桑德拉·布洛克饰演的Debbie Ocean是《十一罗汉》团体头子乔治·克鲁尼饰演的Danny Ocean的妹妹,曾因偷盗入狱服刑。而黛比刚一出狱就策划惊天大案,与凯特·布兰切特饰演的好友一路收罗顶尖高手,预备在一年一度的时髦盛会Met Gala(纽约大城市艺术博物馆慈善舞会)上窃取由安妮·海瑟薇饰演的大明星所佩戴,代价一亿五万万美金的卡地亚钻石项链。

  1. Video
  2. ID                                       : 1
  3. Format                                   : HEVC
  4. Format/Info                              : High Efficiency Video Coding
  5. Commercial name                          : HDR10
  6. Format profile                           : Main [url=/cdn-cgi/l/email-protection][email protected][/url]@High
  7. Codec ID                                 : V_MPEGH/ISO/HEVC
  8. Duration                                 : 1 h 50 min
  9. Bit rate                                 : 18.1 Mb/s
  10. Width                                    : 3 840 pixels
  11. Height                                   : 1 608 pixels
  12. Display aspect ratio                     : 2.40:1
  13. Frame rate mode                          : Constant
  14. Frame rate                               : 23.976 (24000/1001) FPS
  15. Color space                              : YUV
  16. Chroma subsampling                       : 4:2:0 (Type 2)
  17. Bit depth                                : 10 bits
  18. Bits/(Pixel*Frame)                       : 0.122
  19. Stream size                              : 13.9 GiB (70%)
  20. Title                                    : Oceans.Eight.2018.2160p.BluRay.x265.10bit.HDR.DTS-HD.MA.TrueHD.7.1.Atmos-SWTYBLZ
  21. Writing library                          : x265 2.8+54-79c76e42cb28:[Windows][GCC 7.3.1][64 bit] 10bit
  22. Encoding settings                        : cpuid=1111039 / frame-threads=16 / numa-pools=24,24,24,24 / wpp / no-pmode / no-pme / no-psnr / no-ssim / log-level=2 / input-csp=1 / input-res=3840x1608 / interlace=0 / total-frames=0 / level-idc=51 / high-tier=1 / uhd-bd=0 / ref=3 / no-allow-non-conformance / repeat-headers / annexb / aud / hrd / info / hash=0 / no-temporal-layers / no-open-gop / min-keyint=1 / keyint=24 / gop-lookahead=0 / bframes=4 / b-adapt=2 / b-pyramid / bframe-bias=0 / rc-lookahead=25 / lookahead-slices=4 / scenecut=40 / radl=0 / no-intra-refresh / ctu=64 / min-cu-size=8 / no-rect / no-amp / max-tu-size=32 / tu-inter-depth=1 / tu-intra-depth=1 / limit-tu=0 / rdoq-level=0 / dynamic-rd=0.00 / no-ssim-rd / signhide / no-tskip / nr-intra=0 / nr-inter=0 / no-constrained-intra / strong-intra-smoothing / max-merge=2 / limit-refs=3 / no-limit-modes / me=1 / subme=2 / merange=57 / temporal-mvp / weightp / no-weightb / no-analyze-src-pics / deblock=0:0 / no-sao / no-sao-non-deblock / rd=3 / no-early-skip / rskip / no-fast-intra / no-tskip-fast / no-cu-lossless / no-b-intra / no-splitrd-skip / rdpenalty=0 / psy-rd=2.00 / psy-rdoq=0.00 / no-rd-refine / no-lossless / cbqpoffs=0 / crqpoffs=0 / rc=crf / crf=16.0 / qcomp=0.60 / qpstep=4 / stats-write=0 / stats-read=0 / vbv-maxrate=160000 / vbv-bufsize=160000 / vbv-init=0.9 / crf-max=0.0 / crf-min=0.0 / ipratio=1.40 / pbratio=1.30 / aq-mode=1 / aq-strength=1.00 / cutree / zone-count=0 / no-strict-cbr / qg-size=32 / no-rc-grain / qpmax=69 / qpmin=0 / no-const-vbv / sar=1 / overscan=0 / videoformat=5 / range=0 / colorprim=9 / transfer=16 / colormatrix=9 / chromaloc=1 / chromaloc-top=2 / chromaloc-bottom=2 / display-window=0 / master-display=G(13250,34500)B(7500,3000)R(34000,16000)WP(15635,16450)L(40000000,50) / max-cll=1360,92 / min-luma=0 / max-luma=1023 / log2-max-poc-lsb=8 / vui-timing-info / vui-hrd-info / slices=1 / opt-qp-pps / opt-ref-list-length-pps / no-multi-pass-opt-rps / scenecut-bias=0.05 / no-opt-cu-delta-qp / no-aq-motion / hdr / hdr-opt / no-dhdr10-opt / no-idr-recovery-sei / analysis-reuse-level=5 / scale-factor=0 / refine-intra=0 / refine-inter=0 / refine-mv=0 / no-limit-sao / ctu-info=0 / no-lowpass-dct / refine-mv-type=0 / copy-pic=1 / max-ausize-factor=1.0 / no-dynamic-refine / no-single-sei
  23. Default                                  : Yes
  24. Forced                                   : No
  25. Color range                              : Limited
  26. Color primaries                          : BT.2020
  27. Transfer characteristics                 : PQ
  28. Matrix coefficients                      : BT.2020 non-constant
  29. Mastering display color primaries        : Display P3
  30. Mastering display luminance              : min: 0.0050 cd/m2, max: 4000 cd/m2
  31. Maximum Content Light Level              : 1360 cd/m2
  32. Maximum Frame-Average Light Level        : 92 cd/m2

  33. Audio #1
  34. ID                                       : 2
  35. Format                                   : TrueHD
  36. Format profile                           : TrueHD+Atmos / TrueHD
  37. Codec ID                                 : A_TRUEHD
  38. Duration                                 : 1 h 50 min
  39. Bit rate mode                            : Variable
  40. Bit rate                                 : 2 782 kb/s
  41. Maximum bit rate                         : 4 275 kb/s
  42. Channel(s)                               : Object Based / 8 channels
  43. Channel positions                        : Object Based / Front: L C R, Side: L R, Back: L R, LFE
  44. Sampling rate                            :  / 48.0 kHz
  45. Frame rate                               : 1 200.000 FPS (40 SPF)
  46. Compression mode                         : Lossless
  47. Stream size                              : 2.14 GiB (11%)
  48. Title                                    : Oceans.Eight.2018.2160p.BluRay.x265.10bit.HDR.DTS-HD.MA.TrueHD.7.1.Atmos-SWTYBLZ
  49. Language                                 : English
  50. Default                                  : Yes
  51. Forced                                   : No

  52. Audio #2
  53. ID                                       : 3
  54. Format                                   : DTS
  55. Format/Info                              : Digital Theater Systems
  56. Format profile                           : MA / Core
  57. Codec ID                                 : A_DTS
  58. Duration                                 : 1 h 50 min
  59. Bit rate mode                            : Variable / Constant
  60. Bit rate                                 : 4 034 kb/s / 1 509 kb/s
  61. Channel(s)                               : 8 channels / 6 channels
  62. Channel positions                        : Front: L C R, Side: L R, Back: L R, LFE / Front: L C R, Side: L R, LFE
  63. Sampling rate                            : 48.0 kHz
  64. Frame rate                               : 93.750 FPS (512 SPF)
  65. Bit depth                                : 24 bits
  66. Compression mode                         : Lossless / Lossy
  67. Stream size                              : 3.10 GiB (16%)
  68. Title                                    : Oceans.Eight.2018.2160p.BluRay.x265.10bit.HDR.DTS-HD.MA.TrueHD.7.1.Atmos-SWTYBLZ
  69. Language                                 : English
  70. Default                                  : No
  71. Forced                                   : No

  72. Audio #3
  73. ID                                       : 4
  74. Format                                   : AC-3
  75. Format/Info                              : Audio Coding 3
  76. Codec ID                                 : A_AC3
  77. Duration                                 : 1 h 50 min
  78. Bit rate mode                            : Constant
  79. Bit rate                                 : 640 kb/s
  80. Channel(s)                               : 6 channels
  81. Channel positions                        : Front: L C R, Side: L R, LFE
  82. Sampling rate                            : 48.0 kHz
  83. Frame rate                               : 31.250 FPS (1536 SPF)
  84. Bit depth                                : 16 bits
  85. Compression mode                         : Lossy
  86. Stream size                              : 504 MiB (2%)
  87. Title                                    : Oceans.Eight.2018.2160p.BluRay.x265.10bit.HDR.DTS-HD.MA.TrueHD.7.1.Atmos-SWTYBLZ
  88. Language                                 : English
  89. Service kind                             : Complete Main
  90. Default                                  : No
  91. Forced                                   : No

  92. Text #1
  93. ID                                       : 5
  94. Format                                   : UTF-8
  95. Codec ID                                 : S_TEXT/UTF8
  96. Codec ID/Info                            : UTF-8 Plain Text
  97. Duration                                 : 1 h 43 min
  98. Bit rate                                 : 64 b/s
  99. Count of elements                        : 1596
  100. Stream size                              : 48.9 KiB (0%)
  101. Title                                    : English-SRT
  102. Language                                 : English
  103. Default                                  : Yes
  104. Forced                                   : No

  105. Text #2
  106. ID                                       : 6
  107. Format                                   : PGS
  108. Muxing mode                              : zlib
  109. Codec ID                                 : S_HDMV/PGS
  110. Codec ID/Info                            : Picture based subtitle format used on BDs/HD-DVDs
  111. Duration                                 : 1 h 49 min
  112. Bit rate                                 : 40.1 kb/s
  113. Count of elements                        : 3526
  114. Stream size                              : 31.4 MiB (0%)
  115. Title                                    : English-PGS
  116. Language                                 : English
  117. Default                                  : No
  118. Forced                                   : No

  119. Text #3
  120. ID                                       : 7
  121. Format                                   : PGS
  122. Muxing mode                              : zlib
  123. Codec ID                                 : S_HDMV/PGS
  124. Codec ID/Info                            : Picture based subtitle format used on BDs/HD-DVDs
  125. Duration                                 : 1 h 49 min
  126. Bit rate                                 : 30.6 kb/s
  127. Count of elements                        : 2952
  128. Stream size                              : 24.0 MiB (0%)
  129. Title                                    : French-PGS
  130. Language                                 : French
  131. Default                                  : No
  132. Forced                                   : No

  133. Text #4
  134. ID                                       : 8
  135. Format                                   : PGS
  136. Muxing mode                              : zlib
  137. Codec ID                                 : S_HDMV/PGS
  138. Codec ID/Info                            : Picture based subtitle format used on BDs/HD-DVDs
  139. Duration                                 : 1 h 49 min
  140. Bit rate                                 : 34.9 kb/s
  141. Count of elements                        : 3696
  142. Stream size                              : 27.3 MiB (0%)
  143. Title                                    : Italian-PGS
  144. Language                                 : Italian
  145. Default                                  : No
  146. Forced                                   : No

  147. Text #5
  148. ID                                       : 9
  149. Format                                   : PGS
  150. Muxing mode                              : zlib
  151. Codec ID                                 : S_HDMV/PGS
  152. Codec ID/Info                            : Picture based subtitle format used on BDs/HD-DVDs
  153. Duration                                 : 1 h 49 min
  154. Bit rate                                 : 32.7 kb/s
  155. Count of elements                        : 3224
  156. Stream size                              : 25.6 MiB (0%)
  157. Title                                    : Spanish-PGS
  158. Language                                 : Spanish
  159. Default                                  : No
  160. Forced                                   : No

  161. Text #6
  162. ID                                       : 10
  163. Format                                   : PGS
  164. Muxing mode                              : zlib
  165. Codec ID                                 : S_HDMV/PGS
  166. Codec ID/Info                            : Picture based subtitle format used on BDs/HD-DVDs
  167. Duration                                 : 1 h 49 min
  168. Bit rate                                 : 32.2 kb/s
  169. Count of elements                        : 3100
  170. Stream size                              : 25.2 MiB (0%)
  171. Title                                    : Chinese-PGS
  172. Language                                 : Chinese
  173. Default                                  : No
  174. Forced                                   : No

  175. Text #7
  176. ID                                       : 11
  177. Format                                   : PGS
  178. Muxing mode                              : zlib
  179. Codec ID                                 : S_HDMV/PGS
  180. Codec ID/Info                            : Picture based subtitle format used on BDs/HD-DVDs
  181. Duration                                 : 1 h 49 min
  182. Bit rate                                 : 37.7 kb/s
  183. Count of elements                        : 3338
  184. Stream size                              : 29.6 MiB (0%)
  185. Title                                    : Chinese-PGS
  186. Language                                 : Chinese
  187. Default                                  : No
  188. Forced                                   : No

  189. Text #8
  190. ID                                       : 12
  191. Format                                   : PGS
  192. Muxing mode                              : zlib
  193. Codec ID                                 : S_HDMV/PGS
  194. Codec ID/Info                            : Picture based subtitle format used on BDs/HD-DVDs
  195. Duration                                 : 1 h 49 min
  196. Bit rate                                 : 30.9 kb/s
  197. Count of elements                        : 3312
  198. Stream size                              : 24.2 MiB (0%)
  199. Title                                    : Chinese-PGS
  200. Language                                 : Chinese
  201. Default                                  : No
  202. Forced                                   : No

  203. Text #9
  204. ID                                       : 13
  205. Format                                   : PGS
  206. Muxing mode                              : zlib
  207. Codec ID                                 : S_HDMV/PGS
  208. Codec ID/Info                            : Picture based subtitle format used on BDs/HD-DVDs
  209. Duration                                 : 1 h 49 min
  210. Bit rate                                 : 20.1 kb/s
  211. Count of elements                        : 3264
  212. Stream size                              : 15.7 MiB (0%)
  213. Title                                    : Korean-PGS
  214. Language                                 : Korean
  215. Default                                  : No
  216. Forced                                   : No

  217. Text #10
  218. ID                                       : 14
  219. Format                                   : PGS
  220. Muxing mode                              : zlib
  221. Codec ID                                 : S_HDMV/PGS
  222. Codec ID/Info                            : Picture based subtitle format used on BDs/HD-DVDs
  223. Duration                                 : 1 h 49 min
  224. Bit rate                                 : 33.0 kb/s
  225. Count of elements                        : 3284
  226. Stream size                              : 25.8 MiB (0%)
  227. Title                                    : Spanish-PGS
  228. Language                                 : Spanish
  229. Default                                  : No
  230. Forced                                   : No

  231. Text #11
  232. ID                                       : 15
  233. Format                                   : PGS
  234. Muxing mode                              : zlib
  235. Codec ID                                 : S_HDMV/PGS
  236. Codec ID/Info                            : Picture based subtitle format used on BDs/HD-DVDs
  237. Duration                                 : 1 h 49 min
  238. Bit rate                                 : 33.7 kb/s
  239. Count of elements                        : 3292
  240. Stream size                              : 26.4 MiB (0%)
  241. Title                                    : Portuguese-PGS
  242. Language                                 : Portuguese
  243. Default                                  : No
  244. Forced                                   : No

  245. Text #12
  246. ID                                       : 16
  247. Format                                   : PGS
  248. Muxing mode                              : zlib
  249. Codec ID                                 : S_HDMV/PGS
  250. Codec ID/Info                            : Picture based subtitle format used on BDs/HD-DVDs
  251. Duration                                 : 1 h 49 min
  252. Bit rate                                 : 20.9 kb/s
  253. Count of elements                        : 3360
  254. Stream size                              : 16.3 MiB (0%)
  255. Title                                    : Arabic-PGS
  256. Language                                 : Arabic
  257. Default                                  : No
  258. Forced                                   : No

  259. Text #13
  260. ID                                       : 17
  261. Format                                   : PGS
  262. Muxing mode                              : zlib
  263. Codec ID                                 : S_HDMV/PGS
  264. Codec ID/Info                            : Picture based subtitle format used on BDs/HD-DVDs
  265. Duration                                 : 1 h 49 min
  266. Bit rate                                 : 30.5 kb/s
  267. Count of elements                        : 2150
  268. Stream size                              : 23.9 MiB (0%)
  269. Title                                    : Danish-PGS
  270. Language                                 : Danish
  271. Default                                  : No
  272. Forced                                   : No

  273. Text #14
  274. ID                                       : 18
  275. Format                                   : PGS
  276. Muxing mode                              : zlib
  277. Codec ID                                 : S_HDMV/PGS
  278. Codec ID/Info                            : Picture based subtitle format used on BDs/HD-DVDs
  279. Duration                                 : 1 h 49 min
  280. Bit rate                                 : 34.1 kb/s
  281. Count of elements                        : 3298
  282. Stream size                              : 26.7 MiB (0%)
  283. Title                                    : Finnish-PGS
  284. Language                                 : Finnish
  285. Default                                  : No
  286. Forced                                   : No

  287. Text #15
  288. ID                                       : 19
  289. Format                                   : PGS
  290. Muxing mode                              : zlib
  291. Codec ID                                 : S_HDMV/PGS
  292. Codec ID/Info                            : Picture based subtitle format used on BDs/HD-DVDs
  293. Duration                                 : 1 h 49 min
  294. Bit rate                                 : 29.5 kb/s
  295. Count of elements                        : 2504
  296. Stream size                              : 23.1 MiB (0%)
  297. Title                                    : Norwegian-PGS
  298. Language                                 : Norwegian
  299. Default                                  : No
  300. Forced                                   : No

  301. Text #16
  302. ID                                       : 20
  303. Format                                   : PGS
  304. Muxing mode                              : zlib
  305. Codec ID                                 : S_HDMV/PGS
  306. Codec ID/Info                            : Picture based subtitle format used on BDs/HD-DVDs
  307. Duration                                 : 1 h 49 min
  308. Bit rate                                 : 36.5 kb/s
  309. Count of elements                        : 2764
  310. Stream size                              : 28.6 MiB (0%)
  311. Title                                    : Russian-PGS
  312. Language                                 : Russian
  313. Default                                  : No
  314. Forced                                   : No

  315. Text #17
  316. ID                                       : 21
  317. Format                                   : PGS
  318. Muxing mode                              : zlib
  319. Codec ID                                 : S_HDMV/PGS
  320. Codec ID/Info                            : Picture based subtitle format used on BDs/HD-DVDs
  321. Duration                                 : 1 h 49 min
  322. Bit rate                                 : 32.4 kb/s
  323. Count of elements                        : 3264
  324. Stream size                              : 25.3 MiB (0%)
  325. Title                                    : Swedish-PGS
  326. Language                                 : Swedish
  327. Default                                  : No
  328. Forced                                   : No

  329. Text #18
  330. ID                                       : 22
  331. Format                                   : PGS
  332. Muxing mode                              : zlib
  333. Codec ID                                 : S_HDMV/PGS
  334. Codec ID/Info                            : Picture based subtitle format used on BDs/HD-DVDs
  335. Duration                                 : 1 h 49 min
  336. Bit rate                                 : 32.3 kb/s
  337. Count of elements                        : 3306
  338. Stream size                              : 25.3 MiB (0%)
  339. Title                                    : Thai-PGS
  340. Language                                 : Thai
  341. Default                                  : No
  342. Forced                                   : No

  343. Menu
  344. 00:00:00.000                             : :Chapter 1
  345. 00:11:18.260                             : :Chapter 2
  346. 00:20:06.747                             : :Chapter 3
  347. 00:31:37.103                             : :Chapter 4
  348. 00:41:29.612                             : :Chapter 5
  349. 00:49:18.914                             : :Chapter 6
  350. 00:56:22.295                             : :Chapter 7
  351. 01:05:50.071                             : :Chapter 8
  352. 01:16:32.546                             : :Chapter 9
  353. 01:27:01.174                             : :Chapter 10
  354. 01:35:42.153                             : :Chapter 11
  355. 01:44:08.659                             : :Chapter 12
复制代码

复制代码

瞒天过海:美人计/女版十一罗汉 Oceans.Eight.2018.2160p.BluRay.x265.10bit.HDR.DTS-HD.MA.TrueHD.7.1.Atmos-SWTYBLZ 19.98GB-2.png 瞒天过海:美人计/女版十一罗汉 Oceans.Eight.2018.2160p.BluRay.x265.10bit.HDR.DTS-HD.MA.TrueHD.7.1.Atmos-SWTYBLZ 19.98GB-3.png 瞒天过海:美人计/女版十一罗汉 Oceans.Eight.2018.2160p.BluRay.x265.10bit.HDR.DTS-HD.MA.TrueHD.7.1.Atmos-SWTYBLZ 19.98GB-4.png 瞒天过海:美人计/女版十一罗汉 Oceans.Eight.2018.2160p.BluRay.x265.10bit.HDR.DTS-HD.MA.TrueHD.7.1.Atmos-SWTYBLZ 19.98GB-5.png 瞒天过海:美人计/女版十一罗汉 Oceans.Eight.2018.2160p.BluRay.x265.10bit.HDR.DTS-HD.MA.TrueHD.7.1.Atmos-SWTYBLZ 19.98GB-6.png 瞒天过海:美人计/女版十一罗汉 Oceans.Eight.2018.2160p.BluRay.x265.10bit.HDR.DTS-HD.MA.TrueHD.7.1.Atmos-SWTYBLZ 19.98GB-7.png 瞒天过海:美人计/女版十一罗汉 Oceans.Eight.2018.2160p.BluRay.x265.10bit.HDR.DTS-HD.MA.TrueHD.7.1.Atmos-SWTYBLZ 19.98GB-8.png






回复

使用道具 举报

懒得打字嘛,点击右侧快捷回复 【右侧内容,后台自定义】
您需要登录后才可以回帖 登录 | 立即加入

本版积分规则

Archiver|小黑屋| 蓝光电影网 |网站地图

Copyright © 2021 Comsenz Inc. Powered by 蓝光电影网

蓝光电影网

本站内容由用户自主分享和转载自互联网,转载目的在于传递更多信息,并不代表本网赞同其观点和对其真实性负责。

如有侵权、违反国家法律政策行为,请联系我们,我们会第一时间及时清除和处理!

举报反馈邮箱:[email protected]

快速回复 返回顶部 返回列表