找回密码

蓝光电影网

查看: 1769|回复: 6

瞒天过海:美人计/女版十一罗汉 Oceans.Eight.2018.2160p.BluRay.x264.8bit.SDR.DTS-HD.MA.TrueHD.7.1.Atmos-SWTYBLZ 37.85GB

[复制链接]
蓝光币
623
发表于 2018-9-9 23:10:18 | 显示全部楼层 |阅读模式

瞒天过海:美人计/女版十一罗汉 Oceans.Eight.2018.2160p.BluRay.x264.8bit.SDR.DTS-HD.MA.TrueHD.7.1.Atmos-SWTYBLZ 37.85GB-1.jpg
◎译  名 瞒天过海:美人计/女版十一罗汉/瞒天过海:八面玲珑(台)/盗海豪情:8美千娇(港)/八罗汉/八大罗汉/侠盗英姿/盗海姐妹团
◎片  名 Ocean's Eight
◎年  代 2018
◎产  地 美国
◎类  别 笑剧/犯罪
◎语  言 英语/德语/法语/汉语普通话
◎上映日期 2018-06-08(美国)
◎豆瓣评分 6.8/10 from 59,563 users
◎豆瓣链接 https://movie.douban.com/subject/26654269/
◎片  长 110分钟
◎导  演 盖瑞·罗斯 Gary Ross
◎主  演 桑德拉·布洛克 Sandra Bullock
      凯特·布兰切特 Cate Blanchett
      安妮·海瑟薇 Anne Hathaway
      海伦娜·伯翰·卡特 Helena Bonham Carter
      蕾哈娜 Rihanna
      莎拉·保罗森 Sarah Paulson
      敏迪·卡灵 Mindy Kaling
      奥卡菲娜 Awkwafina
      詹姆斯·柯登 James Corden
      理查德·阿米蒂奇 Richard Armitage
      格里芬·邓恩 Griffin Dunne
      迪德尔·古德温 Deidre Goodwin
      丹尼埃拉·拉贝尼 Daniella Rabbani
      埃利奥特·古尔德 Elliott Gould
      夏洛特·柯克 Charlotte Kirk
      达科塔·范宁 Dakota Fanning
      理查德·罗比查乌克斯 Richard Robichaux
      达米安·杨 Damian Young
      戈登·格里克 Gideon Glick
      凯特琳·梅纳 Caitlin Mehner
      詹姆斯·比贝里 James Biberi
      香农·弗雷尔 Shannon Freyer
      康纳尔·多诺万 Conor Donovan
      凯文·布朗 Kevin Brown
      马尔洛·托马斯 Marlo Thomas
      丹娜·爱薇 Dana Ivey
      玛丽·路易丝·威尔逊 Mary Louise Wilson
      伊丽莎白·阿什利 Elizabeth Ashley
      凯蒂·霍尔姆斯 Katie Holmes
      肯多尔·詹纳 Kendall Jenner
      凯莉·詹娜 Kylie Jenner
      金·卡戴珊 Kim Kardashian

◎简  介

  桑德拉·布洛克饰演的Debbie Ocean是《十一罗汉》团体头子乔治·克鲁尼饰演的Danny Ocean的妹妹,曾因偷盗入狱服刑。而黛比刚一出狱就策划惊天大案,与凯特·布兰切特饰演的好友一路收罗顶尖高手,预备在一年一度的时髦盛会Met Gala(纽约大城市艺术博物馆慈善舞会)上窃取由安妮·海瑟薇饰演的大明星所佩戴,代价一亿五万万美金的卡地亚钻石项链。

  1. Video
  2. ID                                       : 1
  3. Format                                   : AVC
  4. Format/Info                              : Advanced Video Codec
  5. Format profile                           : [url=/cdn-cgi/l/email-protection][email protected][/url]
  6. Format settings                          : CABAC / 5 Ref Frames
  7. Format settings, CABAC                   : Yes
  8. Format settings, RefFrames               : 5 frames
  9. Codec ID                                 : V_MPEG4/ISO/AVC
  10. Duration                                 : 1 h 50 min
  11. Bit rate                                 : 41.1 Mb/s
  12. Width                                    : 3 840 pixels
  13. Height                                   : 1 608 pixels
  14. Display aspect ratio                     : 2.40:1
  15. Frame rate mode                          : Constant
  16. Frame rate                               : 23.976 (24000/1001) FPS
  17. Color space                              : YUV
  18. Chroma subsampling                       : 4:2:0
  19. Bit depth                                : 8 bits
  20. Scan type                                : Progressive
  21. Bits/(Pixel*Frame)                       : 0.277
  22. Stream size                              : 31.6 GiB (84%)
  23. Title                                    : Oceans.Eight.2018.2160p.BluRay.x264.8bit.SDR.DTS-HD.MA.TrueHD.7.1.Atmos-SWTYBLZ
  24. Writing library                          : x264 core 155 r2901 7d0ff22
  25. Encoding settings                        : cabac=1 / ref=5 / deblock=1:-1:-1 / analyse=0x3:0x113 / me=umh / subme=10 / psy=1 / psy_rd=1.00:0.15 / mixed_ref=1 / me_range=48 / chroma_me=1 / trellis=2 / 8x8dct=1 / cqm=0 / deadzone=21,11 / fast_pskip=1 / chroma_qp_offset=-3 / threads=36 / lookahead_threads=3 / sliced_threads=0 / nr=0 / decimate=0 / interlaced=0 / bluray_compat=0 / constrained_intra=0 / bframes=3 / b_pyramid=2 / b_adapt=2 / b_bias=0 / direct=3 / weightb=1 / open_gop=0 / weightp=2 / keyint=250 / keyint_min=23 / scenecut=40 / intra_refresh=0 / rc_lookahead=50 / rc=crf / mbtree=1 / crf=18.0 / qcomp=0.60 / qpmin=0 / qpmax=69 / qpstep=4 / ip_ratio=1.40 / aq=1:1.00
  26. Default                                  : Yes
  27. Forced                                   : No

  28. Audio #1
  29. ID                                       : 2
  30. Format                                   : TrueHD
  31. Format profile                           : TrueHD+Atmos / TrueHD
  32. Codec ID                                 : A_TRUEHD
  33. Duration                                 : 1 h 50 min
  34. Bit rate mode                            : Variable
  35. Bit rate                                 : 2 782 kb/s
  36. Maximum bit rate                         : 4 275 kb/s
  37. Channel(s)                               : Object Based / 8 channels
  38. Channel positions                        : Object Based / Front: L C R, Side: L R, Back: L R, LFE
  39. Sampling rate                            :  / 48.0 kHz
  40. Frame rate                               : 1 200.000 FPS (40 SPF)
  41. Compression mode                         : Lossless
  42. Stream size                              : 2.14 GiB (6%)
  43. Title                                    : Oceans.Eight.2018.2160p.BluRay.x264.8bit.SDR.DTS-HD.MA.TrueHD.7.1.Atmos-SWTYBLZ
  44. Language                                 : English
  45. Default                                  : Yes
  46. Forced                                   : No

  47. Audio #2
  48. ID                                       : 3
  49. Format                                   : DTS
  50. Format/Info                              : Digital Theater Systems
  51. Format profile                           : MA / Core
  52. Codec ID                                 : A_DTS
  53. Duration                                 : 1 h 50 min
  54. Bit rate mode                            : Variable / Constant
  55. Bit rate                                 : 4 034 kb/s / 1 509 kb/s
  56. Channel(s)                               : 8 channels / 6 channels
  57. Channel positions                        : Front: L C R, Side: L R, Back: L R, LFE / Front: L C R, Side: L R, LFE
  58. Sampling rate                            : 48.0 kHz
  59. Frame rate                               : 93.750 FPS (512 SPF)
  60. Bit depth                                : 24 bits
  61. Compression mode                         : Lossless / Lossy
  62. Stream size                              : 3.10 GiB (8%)
  63. Title                                    : Oceans.Eight.2018.2160p.BluRay.x264.8bit.SDR.DTS-HD.MA.TrueHD.7.1.Atmos-SWTYBLZ
  64. Language                                 : English
  65. Default                                  : No
  66. Forced                                   : No

  67. Audio #3
  68. ID                                       : 4
  69. Format                                   : AC-3
  70. Format/Info                              : Audio Coding 3
  71. Codec ID                                 : A_AC3
  72. Duration                                 : 1 h 50 min
  73. Bit rate mode                            : Constant
  74. Bit rate                                 : 640 kb/s
  75. Channel(s)                               : 6 channels
  76. Channel positions                        : Front: L C R, Side: L R, LFE
  77. Sampling rate                            : 48.0 kHz
  78. Frame rate                               : 31.250 FPS (1536 SPF)
  79. Bit depth                                : 16 bits
  80. Compression mode                         : Lossy
  81. Stream size                              : 504 MiB (1%)
  82. Title                                    : Oceans.Eight.2018.2160p.BluRay.x264.8bit.SDR.DTS-HD.MA.TrueHD.7.1.Atmos-SWTYBLZ
  83. Language                                 : English
  84. Service kind                             : Complete Main
  85. Default                                  : No
  86. Forced                                   : No

  87. Text #1
  88. ID                                       : 5
  89. Format                                   : UTF-8
  90. Codec ID                                 : S_TEXT/UTF8
  91. Codec ID/Info                            : UTF-8 Plain Text
  92. Duration                                 : 1 h 43 min
  93. Bit rate                                 : 64 b/s
  94. Count of elements                        : 1596
  95. Stream size                              : 48.9 KiB (0%)
  96. Title                                    : English-SRT
  97. Language                                 : English
  98. Default                                  : Yes
  99. Forced                                   : No

  100. Text #2
  101. ID                                       : 6
  102. Format                                   : PGS
  103. Muxing mode                              : zlib
  104. Codec ID                                 : S_HDMV/PGS
  105. Codec ID/Info                            : Picture based subtitle format used on BDs/HD-DVDs
  106. Duration                                 : 1 h 49 min
  107. Bit rate                                 : 40.1 kb/s
  108. Count of elements                        : 3526
  109. Stream size                              : 31.4 MiB (0%)
  110. Title                                    : English-PGS
  111. Language                                 : English
  112. Default                                  : No
  113. Forced                                   : No

  114. Text #3
  115. ID                                       : 7
  116. Format                                   : PGS
  117. Muxing mode                              : zlib
  118. Codec ID                                 : S_HDMV/PGS
  119. Codec ID/Info                            : Picture based subtitle format used on BDs/HD-DVDs
  120. Duration                                 : 1 h 49 min
  121. Bit rate                                 : 30.6 kb/s
  122. Count of elements                        : 2952
  123. Stream size                              : 24.0 MiB (0%)
  124. Title                                    : French-PGS
  125. Language                                 : French
  126. Default                                  : No
  127. Forced                                   : No

  128. Text #4
  129. ID                                       : 8
  130. Format                                   : PGS
  131. Muxing mode                              : zlib
  132. Codec ID                                 : S_HDMV/PGS
  133. Codec ID/Info                            : Picture based subtitle format used on BDs/HD-DVDs
  134. Duration                                 : 1 h 49 min
  135. Bit rate                                 : 34.9 kb/s
  136. Count of elements                        : 3696
  137. Stream size                              : 27.3 MiB (0%)
  138. Title                                    : Italian-PGS
  139. Language                                 : Italian
  140. Default                                  : No
  141. Forced                                   : No

  142. Text #5
  143. ID                                       : 9
  144. Format                                   : PGS
  145. Muxing mode                              : zlib
  146. Codec ID                                 : S_HDMV/PGS
  147. Codec ID/Info                            : Picture based subtitle format used on BDs/HD-DVDs
  148. Duration                                 : 1 h 49 min
  149. Bit rate                                 : 32.7 kb/s
  150. Count of elements                        : 3224
  151. Stream size                              : 25.6 MiB (0%)
  152. Title                                    : Spanish-PGS
  153. Language                                 : Spanish
  154. Default                                  : No
  155. Forced                                   : No

  156. Text #6
  157. ID                                       : 10
  158. Format                                   : PGS
  159. Muxing mode                              : zlib
  160. Codec ID                                 : S_HDMV/PGS
  161. Codec ID/Info                            : Picture based subtitle format used on BDs/HD-DVDs
  162. Duration                                 : 1 h 49 min
  163. Bit rate                                 : 32.2 kb/s
  164. Count of elements                        : 3100
  165. Stream size                              : 25.2 MiB (0%)
  166. Title                                    : Chinese-PGS
  167. Language                                 : Chinese
  168. Default                                  : No
  169. Forced                                   : No

  170. Text #7
  171. ID                                       : 11
  172. Format                                   : PGS
  173. Muxing mode                              : zlib
  174. Codec ID                                 : S_HDMV/PGS
  175. Codec ID/Info                            : Picture based subtitle format used on BDs/HD-DVDs
  176. Duration                                 : 1 h 49 min
  177. Bit rate                                 : 37.7 kb/s
  178. Count of elements                        : 3338
  179. Stream size                              : 29.6 MiB (0%)
  180. Title                                    : Chinese-PGS
  181. Language                                 : Chinese
  182. Default                                  : No
  183. Forced                                   : No

  184. Text #8
  185. ID                                       : 12
  186. Format                                   : PGS
  187. Muxing mode                              : zlib
  188. Codec ID                                 : S_HDMV/PGS
  189. Codec ID/Info                            : Picture based subtitle format used on BDs/HD-DVDs
  190. Duration                                 : 1 h 49 min
  191. Bit rate                                 : 30.9 kb/s
  192. Count of elements                        : 3312
  193. Stream size                              : 24.2 MiB (0%)
  194. Title                                    : Chinese-PGS
  195. Language                                 : Chinese
  196. Default                                  : No
  197. Forced                                   : No

  198. Text #9
  199. ID                                       : 13
  200. Format                                   : PGS
  201. Muxing mode                              : zlib
  202. Codec ID                                 : S_HDMV/PGS
  203. Codec ID/Info                            : Picture based subtitle format used on BDs/HD-DVDs
  204. Duration                                 : 1 h 49 min
  205. Bit rate                                 : 20.1 kb/s
  206. Count of elements                        : 3264
  207. Stream size                              : 15.7 MiB (0%)
  208. Title                                    : Korean-PGS
  209. Language                                 : Korean
  210. Default                                  : No
  211. Forced                                   : No

  212. Text #10
  213. ID                                       : 14
  214. Format                                   : PGS
  215. Muxing mode                              : zlib
  216. Codec ID                                 : S_HDMV/PGS
  217. Codec ID/Info                            : Picture based subtitle format used on BDs/HD-DVDs
  218. Duration                                 : 1 h 49 min
  219. Bit rate                                 : 33.0 kb/s
  220. Count of elements                        : 3284
  221. Stream size                              : 25.8 MiB (0%)
  222. Title                                    : Spanish-PGS
  223. Language                                 : Spanish
  224. Default                                  : No
  225. Forced                                   : No

  226. Text #11
  227. ID                                       : 15
  228. Format                                   : PGS
  229. Muxing mode                              : zlib
  230. Codec ID                                 : S_HDMV/PGS
  231. Codec ID/Info                            : Picture based subtitle format used on BDs/HD-DVDs
  232. Duration                                 : 1 h 49 min
  233. Bit rate                                 : 33.7 kb/s
  234. Count of elements                        : 3292
  235. Stream size                              : 26.4 MiB (0%)
  236. Title                                    : Portuguese-PGS
  237. Language                                 : Portuguese
  238. Default                                  : No
  239. Forced                                   : No

  240. Text #12
  241. ID                                       : 16
  242. Format                                   : PGS
  243. Muxing mode                              : zlib
  244. Codec ID                                 : S_HDMV/PGS
  245. Codec ID/Info                            : Picture based subtitle format used on BDs/HD-DVDs
  246. Duration                                 : 1 h 49 min
  247. Bit rate                                 : 20.9 kb/s
  248. Count of elements                        : 3360
  249. Stream size                              : 16.3 MiB (0%)
  250. Title                                    : Arabic-PGS
  251. Language                                 : Arabic
  252. Default                                  : No
  253. Forced                                   : No

  254. Text #13
  255. ID                                       : 17
  256. Format                                   : PGS
  257. Muxing mode                              : zlib
  258. Codec ID                                 : S_HDMV/PGS
  259. Codec ID/Info                            : Picture based subtitle format used on BDs/HD-DVDs
  260. Duration                                 : 1 h 49 min
  261. Bit rate                                 : 30.5 kb/s
  262. Count of elements                        : 2150
  263. Stream size                              : 23.9 MiB (0%)
  264. Title                                    : Danish-PGS
  265. Language                                 : Danish
  266. Default                                  : No
  267. Forced                                   : No

  268. Text #14
  269. ID                                       : 18
  270. Format                                   : PGS
  271. Muxing mode                              : zlib
  272. Codec ID                                 : S_HDMV/PGS
  273. Codec ID/Info                            : Picture based subtitle format used on BDs/HD-DVDs
  274. Duration                                 : 1 h 49 min
  275. Bit rate                                 : 34.1 kb/s
  276. Count of elements                        : 3298
  277. Stream size                              : 26.7 MiB (0%)
  278. Title                                    : Finnish-PGS
  279. Language                                 : Finnish
  280. Default                                  : No
  281. Forced                                   : No

  282. Text #15
  283. ID                                       : 19
  284. Format                                   : PGS
  285. Muxing mode                              : zlib
  286. Codec ID                                 : S_HDMV/PGS
  287. Codec ID/Info                            : Picture based subtitle format used on BDs/HD-DVDs
  288. Duration                                 : 1 h 49 min
  289. Bit rate                                 : 29.5 kb/s
  290. Count of elements                        : 2504
  291. Stream size                              : 23.1 MiB (0%)
  292. Title                                    : Norwegian-PGS
  293. Language                                 : Norwegian
  294. Default                                  : No
  295. Forced                                   : No

  296. Text #16
  297. ID                                       : 20
  298. Format                                   : PGS
  299. Muxing mode                              : zlib
  300. Codec ID                                 : S_HDMV/PGS
  301. Codec ID/Info                            : Picture based subtitle format used on BDs/HD-DVDs
  302. Duration                                 : 1 h 49 min
  303. Bit rate                                 : 36.5 kb/s
  304. Count of elements                        : 2764
  305. Stream size                              : 28.6 MiB (0%)
  306. Title                                    : Russian-PGS
  307. Language                                 : Russian
  308. Default                                  : No
  309. Forced                                   : No

  310. Text #17
  311. ID                                       : 21
  312. Format                                   : PGS
  313. Muxing mode                              : zlib
  314. Codec ID                                 : S_HDMV/PGS
  315. Codec ID/Info                            : Picture based subtitle format used on BDs/HD-DVDs
  316. Duration                                 : 1 h 49 min
  317. Bit rate                                 : 32.4 kb/s
  318. Count of elements                        : 3264
  319. Stream size                              : 25.3 MiB (0%)
  320. Title                                    : Swedish-PGS
  321. Language                                 : Swedish
  322. Default                                  : No
  323. Forced                                   : No

  324. Text #18
  325. ID                                       : 22
  326. Format                                   : PGS
  327. Muxing mode                              : zlib
  328. Codec ID                                 : S_HDMV/PGS
  329. Codec ID/Info                            : Picture based subtitle format used on BDs/HD-DVDs
  330. Duration                                 : 1 h 49 min
  331. Bit rate                                 : 32.3 kb/s
  332. Count of elements                        : 3306
  333. Stream size                              : 25.3 MiB (0%)
  334. Title                                    : Thai-PGS
  335. Language                                 : Thai
  336. Default                                  : No
  337. Forced                                   : No

  338. Menu
  339. 00:00:00.000                             : :Chapter 1
  340. 00:11:18.260                             : :Chapter 2
  341. 00:20:06.747                             : :Chapter 3
  342. 00:31:37.103                             : :Chapter 4
  343. 00:41:29.612                             : :Chapter 5
  344. 00:49:18.914                             : :Chapter 6
  345. 00:56:22.295                             : :Chapter 7
  346. 01:05:50.071                             : :Chapter 8
  347. 01:16:32.546                             : :Chapter 9
  348. 01:27:01.174                             : :Chapter 10
  349. 01:35:42.153                             : :Chapter 11
  350. 01:44:08.659                             : :Chapter 12
复制代码

复制代码

瞒天过海:美人计/女版十一罗汉 Oceans.Eight.2018.2160p.BluRay.x264.8bit.SDR.DTS-HD.MA.TrueHD.7.1.Atmos-SWTYBLZ 37.85GB-2.png 瞒天过海:美人计/女版十一罗汉 Oceans.Eight.2018.2160p.BluRay.x264.8bit.SDR.DTS-HD.MA.TrueHD.7.1.Atmos-SWTYBLZ 37.85GB-3.png 瞒天过海:美人计/女版十一罗汉 Oceans.Eight.2018.2160p.BluRay.x264.8bit.SDR.DTS-HD.MA.TrueHD.7.1.Atmos-SWTYBLZ 37.85GB-4.png 瞒天过海:美人计/女版十一罗汉 Oceans.Eight.2018.2160p.BluRay.x264.8bit.SDR.DTS-HD.MA.TrueHD.7.1.Atmos-SWTYBLZ 37.85GB-5.png 瞒天过海:美人计/女版十一罗汉 Oceans.Eight.2018.2160p.BluRay.x264.8bit.SDR.DTS-HD.MA.TrueHD.7.1.Atmos-SWTYBLZ 37.85GB-6.png 瞒天过海:美人计/女版十一罗汉 Oceans.Eight.2018.2160p.BluRay.x264.8bit.SDR.DTS-HD.MA.TrueHD.7.1.Atmos-SWTYBLZ 37.85GB-7.png 瞒天过海:美人计/女版十一罗汉 Oceans.Eight.2018.2160p.BluRay.x264.8bit.SDR.DTS-HD.MA.TrueHD.7.1.Atmos-SWTYBLZ 37.85GB-8.png






回复

使用道具 举报

蓝光币
3073
发表于 2018-9-10 00:01:25 | 显示全部楼层
感恩无私的分享与奉献 :)
回复 支持 反对

使用道具 举报

蓝光币
3073
发表于 2018-9-12 00:03:08 | 显示全部楼层
感恩无私的分享与奉献 :)
回复 支持 反对

使用道具 举报

懒得打字嘛,点击右侧快捷回复 【右侧内容,后台自定义】
您需要登录后才可以回帖 登录 | 立即加入

本版积分规则

Archiver|小黑屋| 蓝光电影网 |网站地图

Copyright © 2021 Comsenz Inc. Powered by 蓝光电影网

蓝光电影网

本站内容由用户自主分享和转载自互联网,转载目的在于传递更多信息,并不代表本网赞同其观点和对其真实性负责。

如有侵权、违反国家法律政策行为,请联系我们,我们会第一时间及时清除和处理!

举报反馈邮箱:[email protected]

快速回复 返回顶部 返回列表