找回密码

蓝光电影网

查看: 1354|回复: 1

绝地战警2/重案梦幻组2 Bad.Boys.II.2003.2160p.UHD.BluRay.X265.10bit.HDR.TrueHD.7.1.Atmos-WhiteRhino 40.36GB

[复制链接]
蓝光币
623
发表于 2018-9-9 23:10:50 | 显示全部楼层 |阅读模式

绝地战警2/重案梦幻组2 Bad.Boys.II.2003.2160p.UHD.BluRay.X265.10bit.HDR.TrueHD.7.1.Atmos-WhiteRhino 40.36GB-1.jpg
◎译  名 绝地战警2/重案梦幻组2/坏小子2
◎片  名 Bad Boys II
◎年  代 2003
◎产  地 美国
◎类  别 笑剧/行动/犯罪
◎语  言 英语/葡萄牙语
◎上映日期 2003-07-18(美国)
◎豆瓣评分 7.4/10 from 21,437 users
◎豆瓣链接 https://movie.douban.com/subject/1307917/
◎片  长 147 分钟
◎导  演 迈克尔·贝 Michael Bay
◎主  演 马丁·劳伦斯 Martin Lawrence
      威尔·史姑娘 Will Smith
      詹迪·莫拉 Jordi Mollà
      加布里埃尔·尤尼恩 Gabrielle Union
      彼得·斯特曼 Peter Stormare
      特里萨·兰德尔 Theresa Randle
      乔·潘托里亚诺 Joe Pantoliano
      迈克尔·珊农 Michael Shannon
      乔恩·塞达 Jon Seda
      尤尔·瓦斯克斯 Yul Vazquez
      贾森·曼努尔·奥拉扎巴尔 Jason Manuel Olazabal
      奥托·桑切斯 Otto Sanchez
      亨利·罗林斯 Henry Rollins
      安东尼·科隆 Antoni Corone
      Gary Nickens

◎简  介

  本片是《坏小子》的续篇,故事仍发生在迈阿密。迈阿密的毒品买卖于一夜之间变得异常疯狂众多,各个贩毒团体之间的火拼也接连不竭,为了观察贩毒团体内部的重重冲突,迈阿密警局的一对“黄金”同伴,潇洒的劳瑞(威尔?史姑娘)和神叨的宾纳(马丁?劳伦斯)再度临危受命,很快,两人摸清工作的后果结果:一股外来的贩毒势力正在侵入迈阿密的毒品市场,为首的毒枭野心勃勃,意图控制全部美国甚至欧洲的毒品买卖,建立贩毒王国。
  警方展开行动围歼贩毒团体时,一位DEA的女卧底西德妮(盖布瑞亚?尤妮恩)被毒贩劫持,对方开出的条件是,劳瑞和宾纳必须去干违法的事,这可难倒了两人,由于标致的西德妮不单是宾纳的亲妹妹,还是劳瑞的情人。

  1. Video
  2. ID                                       : 1
  3. Format                                   : HEVC
  4. Format/Info                              : High Efficiency Video Coding
  5. Commercial name                          : HDR10
  6. Format profile                           : Main [url=/cdn-cgi/l/email-protection][email protected][/url]@High
  7. Codec ID                                 : V_MPEGH/ISO/HEVC
  8. Duration                                 : 2 h 26 min
  9. Bit rate                                 : 29.9 Mb/s
  10. Width                                    : 3 840 pixels
  11. Height                                   : 1 608 pixels
  12. Display aspect ratio                     : 2.40:1
  13. Frame rate mode                          : Constant
  14. Frame rate                               : 23.976 (24000/1001) FPS
  15. Color space                              : YUV
  16. Chroma subsampling                       : 4:2:0 (Type 2)
  17. Bit depth                                : 10 bits
  18. Bits/(Pixel*Frame)                       : 0.202
  19. Stream size                              : 30.7 GiB (76%)
  20. Writing library                          : x265 2.8+10-703eade86b53:[Windows][MSVC 1914][64 bit] 10bit
  21. Encoding settings                        : cpuid=1111039 / frame-threads=5 / numa-pools=36 / wpp / no-pmode / no-pme / no-psnr / no-ssim / log-level=2 / input-csp=1 / input-res=3840x1608 / interlace=0 / total-frames=211128 / level-idc=51 / high-tier=1 / uhd-bd=0 / ref=4 / no-allow-non-conformance / repeat-headers / annexb / aud / hrd / info / hash=0 / no-temporal-layers / no-open-gop / min-keyint=1 / keyint=24 / gop-lookahead=0 / bframes=4 / b-adapt=2 / b-pyramid / bframe-bias=0 / rc-lookahead=25 / lookahead-slices=4 / scenecut=40 / radl=0 / no-intra-refresh / ctu=64 / min-cu-size=8 / rect / no-amp / max-tu-size=32 / tu-inter-depth=1 / tu-intra-depth=1 / limit-tu=0 / rdoq-level=2 / dynamic-rd=0.00 / no-ssim-rd / signhide / no-tskip / nr-intra=0 / nr-inter=0 / no-constrained-intra / no-strong-intra-smoothing / max-merge=3 / limit-refs=3 / limit-modes / me=3 / subme=3 / merange=57 / temporal-mvp / weightp / no-weightb / no-analyze-src-pics / deblock=-3:-3 / no-sao / no-sao-non-deblock / rd=4 / no-early-skip / rskip / no-fast-intra / no-tskip-fast / no-cu-lossless / no-b-intra / no-splitrd-skip / rdpenalty=0 / psy-rd=2.00 / psy-rdoq=1.00 / no-rd-refine / no-lossless / cbqpoffs=0 / crqpoffs=0 / rc=crf / crf=19.5 / qcomp=0.60 / qpstep=4 / stats-write=0 / stats-read=0 / vbv-maxrate=160000 / vbv-bufsize=160000 / vbv-init=0.9 / crf-max=0.0 / crf-min=0.0 / ipratio=1.40 / pbratio=1.30 / aq-mode=1 / aq-strength=1.00 / cutree / zone-count=0 / no-strict-cbr / qg-size=32 / no-rc-grain / qpmax=69 / qpmin=0 / no-const-vbv / sar=1 / overscan=0 / videoformat=5 / range=0 / colorprim=9 / transfer=16 / colormatrix=9 / chromaloc=1 / chromaloc-top=2 / chromaloc-bottom=2 / display-window=0 / master-display=G(13250,34500)B(7500,3000)R(34000,16000)WP(15635,16450)L(40000000,50) / max-cll=10000,1367 / min-luma=0 / max-luma=1023 / log2-max-poc-lsb=8 / vui-timing-info / vui-hrd-info / slices=1 / no-opt-qp-pps / no-opt-ref-list-length-pps / no-multi-pass-opt-rps / scenecut-bias=0.05 / no-opt-cu-delta-qp / no-aq-motion / hdr / hdr-opt / no-dhdr10-opt / no-idr-recovery-sei / analysis-reuse-level=5 / scale-factor=0 / refine-intra=0 / refine-inter=0 / refine-mv=0 / no-limit-sao / ctu-info=0 / no-lowpass-dct / refine-mv-type=0 / copy-pic=1 / max-ausize-factor=1.0 / no-dynamic-refine / no-single-sei
  22. Default                                  : Yes
  23. Forced                                   : No
  24. Color range                              : Limited
  25. Color primaries                          : BT.2020
  26. Transfer characteristics                 : PQ
  27. Matrix coefficients                      : BT.2020 non-constant
  28. Mastering display color primaries        : Display P3
  29. Mastering display luminance              : min: 0.0050 cd/m2, max: 4000 cd/m2
  30. Maximum Content Light Level              : 10000 cd/m2
  31. Maximum Frame-Average Light Level        : 1367 cd/m2

  32. Audio #1
  33. ID                                       : 2
  34. Format                                   : TrueHD
  35. Format profile                           : TrueHD+Atmos / TrueHD
  36. Codec ID                                 : A_TRUEHD
  37. Duration                                 : 2 h 26 min
  38. Bit rate mode                            : Variable
  39. Bit rate                                 : 5 774 kb/s
  40. Maximum bit rate                         : 8 961 kb/s
  41. Channel(s)                               : Object Based / 8 channels
  42. Channel positions                        : Object Based / Front: L C R, Side: L R, Back: L R, LFE
  43. Sampling rate                            :  / 48.0 kHz
  44. Frame rate                               : 1 200.000 FPS (40 SPF)
  45. Compression mode                         : Lossless
  46. Stream size                              : 5.92 GiB (15%)
  47. Language                                 : English
  48. Default                                  : Yes
  49. Forced                                   : No

  50. Audio #2
  51. ID                                       : 3
  52. Format                                   : AC-3
  53. Format/Info                              : Audio Coding 3
  54. Codec ID                                 : A_AC3
  55. Duration                                 : 2 h 26 min
  56. Bit rate mode                            : Constant
  57. Bit rate                                 : 640 kb/s
  58. Channel(s)                               : 6 channels
  59. Channel positions                        : Front: L C R, Side: L R, LFE
  60. Sampling rate                            : 48.0 kHz
  61. Frame rate                               : 31.250 FPS (1536 SPF)
  62. Bit depth                                : 16 bits
  63. Compression mode                         : Lossy
  64. Stream size                              : 672 MiB (2%)
  65. Language                                 : English
  66. Service kind                             : Complete Main
  67. Default                                  : No
  68. Forced                                   : No

  69. Audio #3
  70. ID                                       : 4
  71. Format                                   : DTS
  72. Format/Info                              : Digital Theater Systems
  73. Format profile                           : MA / Core
  74. Codec ID                                 : A_DTS
  75. Duration                                 : 2 h 26 min
  76. Bit rate mode                            : Variable / Constant
  77. Bit rate                                 : 2 372 kb/s / 1 509 kb/s
  78. Channel(s)                               : 6 channels
  79. Channel positions                        : Front: L C R, Side: L R, LFE
  80. Sampling rate                            : 48.0 kHz
  81. Frame rate                               : 93.750 FPS (512 SPF)
  82. Bit depth                                : 16 bits
  83. Compression mode                         : Lossless / Lossy
  84. Stream size                              : 2.43 GiB (6%)
  85. Language                                 : English
  86. Default                                  : No
  87. Forced                                   : No

  88. Text #1
  89. ID                                       : 5
  90. Format                                   : PGS
  91. Muxing mode                              : zlib
  92. Codec ID                                 : S_HDMV/PGS
  93. Codec ID/Info                            : Picture based subtitle format used on BDs/HD-DVDs
  94. Duration                                 : 5 s 520 ms
  95. Bit rate                                 : 56.9 kb/s
  96. Count of elements                        : 4
  97. Stream size                              : 38.3 KiB (0%)
  98. Title                                    : English Forced
  99. Language                                 : English
  100. Default                                  : Yes
  101. Forced                                   : No

  102. Text #2
  103. ID                                       : 6
  104. Format                                   : PGS
  105. Muxing mode                              : zlib
  106. Codec ID                                 : S_HDMV/PGS
  107. Codec ID/Info                            : Picture based subtitle format used on BDs/HD-DVDs
  108. Duration                                 : 2 h 25 min
  109. Bit rate                                 : 45.2 kb/s
  110. Count of elements                        : 4512
  111. Stream size                              : 47.0 MiB (0%)
  112. Title                                    : English SDH
  113. Language                                 : English
  114. Default                                  : No
  115. Forced                                   : No

  116. Text #3
  117. ID                                       : 7
  118. Format                                   : PGS
  119. Muxing mode                              : zlib
  120. Codec ID                                 : S_HDMV/PGS
  121. Codec ID/Info                            : Picture based subtitle format used on BDs/HD-DVDs
  122. Duration                                 : 2 h 20 min
  123. Bit rate                                 : 40.2 kb/s
  124. Count of elements                        : 3824
  125. Stream size                              : 40.3 MiB (0%)
  126. Language                                 : English
  127. Default                                  : No
  128. Forced                                   : No

  129. Text #4
  130. ID                                       : 8
  131. Format                                   : PGS
  132. Muxing mode                              : zlib
  133. Codec ID                                 : S_HDMV/PGS
  134. Codec ID/Info                            : Picture based subtitle format used on BDs/HD-DVDs
  135. Duration                                 : 2 h 25 min
  136. Bit rate                                 : 45.2 kb/s
  137. Count of elements                        : 4512
  138. Stream size                              : 47.0 MiB (0%)
  139. Language                                 : English
  140. Default                                  : No
  141. Forced                                   : No

  142. Text #5
  143. ID                                       : 9
  144. Format                                   : PGS
  145. Muxing mode                              : zlib
  146. Codec ID                                 : S_HDMV/PGS
  147. Codec ID/Info                            : Picture based subtitle format used on BDs/HD-DVDs
  148. Duration                                 : 5 s 520 ms
  149. Bit rate                                 : 56.9 kb/s
  150. Count of elements                        : 4
  151. Stream size                              : 38.3 KiB (0%)
  152. Language                                 : English
  153. Default                                  : No
  154. Forced                                   : No

  155. Text #6
  156. ID                                       : 10
  157. Format                                   : PGS
  158. Muxing mode                              : zlib
  159. Codec ID                                 : S_HDMV/PGS
  160. Codec ID/Info                            : Picture based subtitle format used on BDs/HD-DVDs
  161. Duration                                 : 2 h 20 min
  162. Bit rate                                 : 40.2 kb/s
  163. Count of elements                        : 3832
  164. Stream size                              : 40.3 MiB (0%)
  165. Language                                 : English
  166. Default                                  : No
  167. Forced                                   : No

  168. Text #7
  169. ID                                       : 11
  170. Format                                   : PGS
  171. Muxing mode                              : zlib
  172. Codec ID                                 : S_HDMV/PGS
  173. Codec ID/Info                            : Picture based subtitle format used on BDs/HD-DVDs
  174. Duration                                 : 2 h 21 min
  175. Bit rate                                 : 19.2 kb/s
  176. Count of elements                        : 3844
  177. Stream size                              : 19.4 MiB (0%)
  178. Language                                 : Arabic
  179. Default                                  : No
  180. Forced                                   : No

  181. Text #8
  182. ID                                       : 12
  183. Format                                   : PGS
  184. Muxing mode                              : zlib
  185. Codec ID                                 : S_HDMV/PGS
  186. Codec ID/Info                            : Picture based subtitle format used on BDs/HD-DVDs
  187. Duration                                 : 2 h 21 min
  188. Bit rate                                 : 26.9 kb/s
  189. Count of elements                        : 3880
  190. Stream size                              : 27.1 MiB (0%)
  191. Language                                 : Chinese
  192. Default                                  : No
  193. Forced                                   : No

  194. Text #9
  195. ID                                       : 13
  196. Format                                   : PGS
  197. Muxing mode                              : zlib
  198. Codec ID                                 : S_HDMV/PGS
  199. Codec ID/Info                            : Picture based subtitle format used on BDs/HD-DVDs
  200. Duration                                 : 2 h 21 min
  201. Bit rate                                 : 28.2 kb/s
  202. Count of elements                        : 3822
  203. Stream size                              : 28.5 MiB (0%)
  204. Language                                 : Croatian
  205. Default                                  : No
  206. Forced                                   : No

  207. Text #10
  208. ID                                       : 14
  209. Format                                   : PGS
  210. Muxing mode                              : zlib
  211. Codec ID                                 : S_HDMV/PGS
  212. Codec ID/Info                            : Picture based subtitle format used on BDs/HD-DVDs
  213. Duration                                 : 2 h 21 min
  214. Bit rate                                 : 31.6 kb/s
  215. Count of elements                        : 3782
  216. Stream size                              : 31.9 MiB (0%)
  217. Language                                 : Czech
  218. Default                                  : No
  219. Forced                                   : No

  220. Text #11
  221. ID                                       : 15
  222. Format                                   : PGS
  223. Muxing mode                              : zlib
  224. Codec ID                                 : S_HDMV/PGS
  225. Codec ID/Info                            : Picture based subtitle format used on BDs/HD-DVDs
  226. Duration                                 : 2 h 21 min
  227. Bit rate                                 : 31.3 kb/s
  228. Count of elements                        : 3286
  229. Stream size                              : 31.6 MiB (0%)
  230. Language                                 : Danish
  231. Default                                  : No
  232. Forced                                   : No

  233. Text #12
  234. ID                                       : 16
  235. Format                                   : PGS
  236. Muxing mode                              : zlib
  237. Codec ID                                 : S_HDMV/PGS
  238. Codec ID/Info                            : Picture based subtitle format used on BDs/HD-DVDs
  239. Duration                                 : 2 h 20 min
  240. Bit rate                                 : 30.7 kb/s
  241. Count of elements                        : 2647
  242. Stream size                              : 30.9 MiB (0%)
  243. Language                                 : Dutch
  244. Default                                  : No
  245. Forced                                   : No

  246. Text #13
  247. ID                                       : 17
  248. Format                                   : PGS
  249. Muxing mode                              : zlib
  250. Codec ID                                 : S_HDMV/PGS
  251. Codec ID/Info                            : Picture based subtitle format used on BDs/HD-DVDs
  252. Duration                                 : 2 h 21 min
  253. Bit rate                                 : 30.1 kb/s
  254. Count of elements                        : 2982
  255. Stream size                              : 30.4 MiB (0%)
  256. Language                                 : Finnish
  257. Default                                  : No
  258. Forced                                   : No

  259. Text #14
  260. ID                                       : 18
  261. Format                                   : PGS
  262. Muxing mode                              : zlib
  263. Codec ID                                 : S_HDMV/PGS
  264. Codec ID/Info                            : Picture based subtitle format used on BDs/HD-DVDs
  265. Duration                                 : 2 h 25 min
  266. Bit rate                                 : 27.0 kb/s
  267. Count of elements                        : 3586
  268. Stream size                              : 28.1 MiB (0%)
  269. Language                                 : French
  270. Default                                  : No
  271. Forced                                   : No

  272. Text #15
  273. ID                                       : 19
  274. Format                                   : PGS
  275. Muxing mode                              : zlib
  276. Codec ID                                 : S_HDMV/PGS
  277. Codec ID/Info                            : Picture based subtitle format used on BDs/HD-DVDs
  278. Duration                                 : 57 min 30 s
  279. Bit rate                                 : 239 b/s
  280. Count of elements                        : 14
  281. Stream size                              : 101 KiB (0%)
  282. Language                                 : French
  283. Default                                  : No
  284. Forced                                   : No

  285. Text #16
  286. ID                                       : 20
  287. Format                                   : PGS
  288. Muxing mode                              : zlib
  289. Codec ID                                 : S_HDMV/PGS
  290. Codec ID/Info                            : Picture based subtitle format used on BDs/HD-DVDs
  291. Duration                                 : 2 h 21 min
  292. Bit rate                                 : 44.1 kb/s
  293. Count of elements                        : 3951
  294. Stream size                              : 44.5 MiB (0%)
  295. Language                                 : German
  296. Default                                  : No
  297. Forced                                   : No

  298. Text #17
  299. ID                                       : 21
  300. Format                                   : PGS
  301. Muxing mode                              : zlib
  302. Codec ID                                 : S_HDMV/PGS
  303. Codec ID/Info                            : Picture based subtitle format used on BDs/HD-DVDs
  304. Duration                                 : 2 h 21 min
  305. Bit rate                                 : 35.3 kb/s
  306. Count of elements                        : 3738
  307. Stream size                              : 35.6 MiB (0%)
  308. Language                                 : Greek
  309. Default                                  : No
  310. Forced                                   : No

  311. Text #18
  312. ID                                       : 22
  313. Format                                   : PGS
  314. Muxing mode                              : zlib
  315. Codec ID                                 : S_HDMV/PGS
  316. Codec ID/Info                            : Picture based subtitle format used on BDs/HD-DVDs
  317. Duration                                 : 2 h 20 min
  318. Bit rate                                 : 29.4 kb/s
  319. Count of elements                        : 3838
  320. Stream size                              : 29.6 MiB (0%)
  321. Language                                 : Hebrew
  322. Default                                  : No
  323. Forced                                   : No

  324. Text #19
  325. ID                                       : 23
  326. Format                                   : PGS
  327. Muxing mode                              : zlib
  328. Codec ID                                 : S_HDMV/PGS
  329. Codec ID/Info                            : Picture based subtitle format used on BDs/HD-DVDs
  330. Duration                                 : 2 h 21 min
  331. Bit rate                                 : 27.6 kb/s
  332. Count of elements                        : 3846
  333. Stream size                              : 27.8 MiB (0%)
  334. Language                                 : Hungarian
  335. Default                                  : No
  336. Forced                                   : No

  337. Text #20
  338. ID                                       : 24
  339. Format                                   : PGS
  340. Muxing mode                              : zlib
  341. Codec ID                                 : S_HDMV/PGS
  342. Codec ID/Info                            : Picture based subtitle format used on BDs/HD-DVDs
  343. Duration                                 : 2 h 20 min
  344. Bit rate                                 : 36.5 kb/s
  345. Count of elements                        : 3822
  346. Stream size                              : 36.8 MiB (0%)
  347. Language                                 : Italian
  348. Default                                  : No
  349. Forced                                   : No

  350. Text #21
  351. ID                                       : 25
  352. Format                                   : PGS
  353. Muxing mode                              : zlib
  354. Codec ID                                 : S_HDMV/PGS
  355. Codec ID/Info                            : Picture based subtitle format used on BDs/HD-DVDs
  356. Duration                                 : 2 h 20 min
  357. Bit rate                                 : 27.2 kb/s
  358. Count of elements                        : 4193
  359. Stream size                              : 27.4 MiB (0%)
  360. Language                                 : Japanese
  361. Default                                  : No
  362. Forced                                   : No

  363. Text #22
  364. ID                                       : 26
  365. Format                                   : PGS
  366. Muxing mode                              : zlib
  367. Codec ID                                 : S_HDMV/PGS
  368. Codec ID/Info                            : Picture based subtitle format used on BDs/HD-DVDs
  369. Duration                                 : 1 h 34 min
  370. Bit rate                                 : 288 b/s
  371. Count of elements                        : 26
  372. Stream size                              : 200 KiB (0%)
  373. Language                                 : Japanese
  374. Default                                  : No
  375. Forced                                   : No

  376. Text #23
  377. ID                                       : 27
  378. Format                                   : PGS
  379. Muxing mode                              : zlib
  380. Codec ID                                 : S_HDMV/PGS
  381. Codec ID/Info                            : Picture based subtitle format used on BDs/HD-DVDs
  382. Duration                                 : 2 h 21 min
  383. Bit rate                                 : 27.2 kb/s
  384. Count of elements                        : 3874
  385. Stream size                              : 27.5 MiB (0%)
  386. Language                                 : Korean
  387. Default                                  : No
  388. Forced                                   : No

  389. Text #24
  390. ID                                       : 28
  391. Format                                   : PGS
  392. Muxing mode                              : zlib
  393. Codec ID                                 : S_HDMV/PGS
  394. Codec ID/Info                            : Picture based subtitle format used on BDs/HD-DVDs
  395. Duration                                 : 2 h 26 min
  396. Bit rate                                 : 27.7 kb/s
  397. Count of elements                        : 3518
  398. Stream size                              : 28.9 MiB (0%)
  399. Language                                 : Norwegian
  400. Default                                  : No
  401. Forced                                   : No

  402. Text #25
  403. ID                                       : 29
  404. Format                                   : PGS
  405. Muxing mode                              : zlib
  406. Codec ID                                 : S_HDMV/PGS
  407. Codec ID/Info                            : Picture based subtitle format used on BDs/HD-DVDs
  408. Duration                                 : 2 h 21 min
  409. Bit rate                                 : 31.3 kb/s
  410. Count of elements                        : 3764
  411. Stream size                              : 31.6 MiB (0%)
  412. Language                                 : Polish
  413. Default                                  : No
  414. Forced                                   : No

  415. Text #26
  416. ID                                       : 30
  417. Format                                   : PGS
  418. Muxing mode                              : zlib
  419. Codec ID                                 : S_HDMV/PGS
  420. Codec ID/Info                            : Picture based subtitle format used on BDs/HD-DVDs
  421. Duration                                 : 2 h 21 min
  422. Bit rate                                 : 31.0 kb/s
  423. Count of elements                        : 3738
  424. Stream size                              : 31.3 MiB (0%)
  425. Language                                 : Portuguese
  426. Default                                  : No
  427. Forced                                   : No

  428. Text #27
  429. ID                                       : 31
  430. Format                                   : PGS
  431. Muxing mode                              : zlib
  432. Codec ID                                 : S_HDMV/PGS
  433. Codec ID/Info                            : Picture based subtitle format used on BDs/HD-DVDs
  434. Duration                                 : 2 h 26 min
  435. Bit rate                                 : 38.2 kb/s
  436. Count of elements                        : 3792
  437. Stream size                              : 39.9 MiB (0%)
  438. Language                                 : Portuguese
  439. Default                                  : No
  440. Forced                                   : No

  441. Text #28
  442. ID                                       : 32
  443. Format                                   : PGS
  444. Muxing mode                              : zlib
  445. Codec ID                                 : S_HDMV/PGS
  446. Codec ID/Info                            : Picture based subtitle format used on BDs/HD-DVDs
  447. Duration                                 : 2 h 21 min
  448. Bit rate                                 : 31.0 kb/s
  449. Count of elements                        : 3554
  450. Stream size                              : 31.3 MiB (0%)
  451. Language                                 : Romanian
  452. Default                                  : No
  453. Forced                                   : No

  454. Text #29
  455. ID                                       : 33
  456. Format                                   : PGS
  457. Muxing mode                              : zlib
  458. Codec ID                                 : S_HDMV/PGS
  459. Codec ID/Info                            : Picture based subtitle format used on BDs/HD-DVDs
  460. Duration                                 : 2 h 21 min
  461. Bit rate                                 : 41.9 kb/s
  462. Count of elements                        : 3964
  463. Stream size                              : 42.3 MiB (0%)
  464. Language                                 : Russian
  465. Default                                  : No
  466. Forced                                   : No

  467. Text #30
  468. ID                                       : 34
  469. Format                                   : PGS
  470. Muxing mode                              : zlib
  471. Codec ID                                 : S_HDMV/PGS
  472. Codec ID/Info                            : Picture based subtitle format used on BDs/HD-DVDs
  473. Duration                                 : 2 h 21 min
  474. Bit rate                                 : 34.3 kb/s
  475. Count of elements                        : 3952
  476. Stream size                              : 34.6 MiB (0%)
  477. Language                                 : Spanish
  478. Default                                  : No
  479. Forced                                   : No

  480. Text #31
  481. ID                                       : 35
  482. Format                                   : PGS
  483. Muxing mode                              : zlib
  484. Codec ID                                 : S_HDMV/PGS
  485. Codec ID/Info                            : Picture based subtitle format used on BDs/HD-DVDs
  486. Duration                                 : 2 h 21 min
  487. Bit rate                                 : 37.3 kb/s
  488. Count of elements                        : 3904
  489. Stream size                              : 37.6 MiB (0%)
  490. Language                                 : Spanish
  491. Default                                  : No
  492. Forced                                   : No

  493. Text #32
  494. ID                                       : 36
  495. Format                                   : PGS
  496. Muxing mode                              : zlib
  497. Codec ID                                 : S_HDMV/PGS
  498. Codec ID/Info                            : Picture based subtitle format used on BDs/HD-DVDs
  499. Duration                                 : 2 h 25 min
  500. Bit rate                                 : 29.1 kb/s
  501. Count of elements                        : 3391
  502. Stream size                              : 30.3 MiB (0%)
  503. Language                                 : Swedish
  504. Default                                  : No
  505. Forced                                   : No

  506. Text #33
  507. ID                                       : 37
  508. Format                                   : PGS
  509. Muxing mode                              : zlib
  510. Codec ID                                 : S_HDMV/PGS
  511. Codec ID/Info                            : Picture based subtitle format used on BDs/HD-DVDs
  512. Duration                                 : 2 h 21 min
  513. Bit rate                                 : 34.0 kb/s
  514. Count of elements                        : 3874
  515. Stream size                              : 34.3 MiB (0%)
  516. Language                                 : Thai
  517. Default                                  : No
  518. Forced                                   : No

  519. Text #34
  520. ID                                       : 38
  521. Format                                   : PGS
  522. Muxing mode                              : zlib
  523. Codec ID                                 : S_HDMV/PGS
  524. Codec ID/Info                            : Picture based subtitle format used on BDs/HD-DVDs
  525. Duration                                 : 2 h 21 min
  526. Bit rate                                 : 38.0 kb/s
  527. Count of elements                        : 3868
  528. Stream size                              : 38.4 MiB (0%)
  529. Language                                 : Turkish
  530. Default                                  : No
  531. Forced                                   : No

  532. Menu
  533. 00:00:00.000                             : en:00:00:00.000
  534. 00:11:05.498                             : en:00:11:05.498
  535. 00:21:55.397                             : en:00:21:55.397
  536. 00:39:55.768                             : en:00:39:55.768
  537. 00:45:28.684                             : en:00:45:28.684
  538. 00:53:28.789                             : en:00:53:28.789
  539. 00:59:02.247                             : en:00:59:02.247
  540. 01:06:27.066                             : en:01:06:27.066
  541. 01:11:29.619                             : en:01:11:29.619
  542. 01:17:54.169                             : en:01:17:54.169
  543. 01:30:28.131                             : en:01:30:28.131
  544. 01:37:39.228                             : en:01:37:39.228
  545. 01:45:54.765                             : en:01:45:54.765
  546. 01:56:47.626                             : en:01:56:47.626
  547. 02:05:08.584                             : en:02:05:08.584
  548. 02:16:07.701                             : en:02:16:07.701
复制代码

复制代码

绝地战警2/重案梦幻组2 Bad.Boys.II.2003.2160p.UHD.BluRay.X265.10bit.HDR.TrueHD.7.1.Atmos-WhiteRhino 40.36GB-2.png 绝地战警2/重案梦幻组2 Bad.Boys.II.2003.2160p.UHD.BluRay.X265.10bit.HDR.TrueHD.7.1.Atmos-WhiteRhino 40.36GB-3.png 绝地战警2/重案梦幻组2 Bad.Boys.II.2003.2160p.UHD.BluRay.X265.10bit.HDR.TrueHD.7.1.Atmos-WhiteRhino 40.36GB-4.png






回复

使用道具 举报

蓝光币
3066
发表于 2018-9-11 00:02:03 | 显示全部楼层
感恩无私的分享与奉献 :)
回复 支持 反对

使用道具 举报

懒得打字嘛,点击右侧快捷回复 【右侧内容,后台自定义】
您需要登录后才可以回帖 登录 | 立即加入

本版积分规则

Archiver|小黑屋| 蓝光电影网 |网站地图

Copyright © 2021 Comsenz Inc. Powered by 蓝光电影网

蓝光电影网

本站内容由用户自主分享和转载自互联网,转载目的在于传递更多信息,并不代表本网赞同其观点和对其真实性负责。

如有侵权、违反国家法律政策行为,请联系我们,我们会第一时间及时清除和处理!

举报反馈邮箱:[email protected]

快速回复 返回顶部 返回列表