找回密码

蓝光电影网

查看: 1114|回复: 1

绝地战警2/重案梦幻组2 Bad.Boys.II.2003.2160p.BluRay.x264.8bit.SDR.DTS-HD.MA.TrueHD.7.1.Atmos-SWTYBLZ 63.27GB

[复制链接]
蓝光币
623
发表于 2018-9-9 23:11:22 | 显示全部楼层 |阅读模式

绝地战警2/重案梦幻组2 Bad.Boys.II.2003.2160p.BluRay.x264.8bit.SDR.DTS-HD.MA.TrueHD.7.1.Atmos-SWTYBLZ 63.27GB-1.jpg
◎译  名 绝地战警2/重案梦幻组2/坏小子2
◎片  名 Bad Boys II
◎年  代 2003
◎产  地 美国
◎类  别 笑剧/行动/犯罪
◎语  言 英语/葡萄牙语
◎上映日期 2003-07-18(美国)
◎豆瓣评分 7.4/10 from 21,439 users
◎豆瓣链接 https://movie.douban.com/subject/1307917/
◎片  长 147 分钟
◎导  演 迈克尔·贝 Michael Bay
◎主  演 马丁·劳伦斯 Martin Lawrence
      威尔·史姑娘 Will Smith
      詹迪·莫拉 Jordi Mollà
      加布里埃尔·尤尼恩 Gabrielle Union
      彼得·斯特曼 Peter Stormare
      特里萨·兰德尔 Theresa Randle
      乔·潘托里亚诺 Joe Pantoliano
      迈克尔·珊农 Michael Shannon
      乔恩·塞达 Jon Seda
      尤尔·瓦斯克斯 Yul Vazquez
      贾森·曼努尔·奥拉扎巴尔 Jason Manuel Olazabal
      奥托·桑切斯 Otto Sanchez
      亨利·罗林斯 Henry Rollins
      安东尼·科隆 Antoni Corone
      Gary Nickens

◎简  介

  本片是《坏小子》的续篇,故事仍发生在迈阿密。迈阿密的毒品买卖于一夜之间变得异常疯狂众多,各个贩毒团体之间的火拼也接连不竭,为了观察贩毒团体内部的重重冲突,迈阿密警局的一对“黄金”同伴,潇洒的劳瑞(威尔?史姑娘)和神叨的宾纳(马丁?劳伦斯)再度临危受命,很快,两人摸清工作的后果结果:一股外来的贩毒势力正在侵入迈阿密的毒品市场,为首的毒枭野心勃勃,意图控制全部美国甚至欧洲的毒品买卖,建立贩毒王国。
  警方展开行动围歼贩毒团体时,一位DEA的女卧底西德妮(盖布瑞亚?尤妮恩)被毒贩劫持,对方开出的条件是,劳瑞和宾纳必须去干违法的事,这可难倒了两人,由于标致的西德妮不单是宾纳的亲妹妹,还是劳瑞的情人。

  1. Video
  2. ID                                       : 1
  3. Format                                   : AVC
  4. Format/Info                              : Advanced Video Codec
  5. Format profile                           : [url=/cdn-cgi/l/email-protection][email protected][/url]
  6. Format settings                          : CABAC / 5 Ref Frames
  7. Format settings, CABAC                   : Yes
  8. Format settings, RefFrames               : 5 frames
  9. Codec ID                                 : V_MPEG4/ISO/AVC
  10. Duration                                 : 2 h 26 min
  11. Bit rate                                 : 49.9 Mb/s
  12. Width                                    : 3 840 pixels
  13. Height                                   : 1 606 pixels
  14. Display aspect ratio                     : 2.40:1
  15. Frame rate mode                          : Constant
  16. Frame rate                               : 23.976 (24000/1001) FPS
  17. Color space                              : YUV
  18. Chroma subsampling                       : 4:2:0
  19. Bit depth                                : 8 bits
  20. Scan type                                : Progressive
  21. Bits/(Pixel*Frame)                       : 0.338
  22. Stream size                              : 51.2 GiB (81%)
  23. Writing library                          : x264 core 155 r2901 7d0ff22
  24. Encoding settings                        : cabac=1 / ref=5 / deblock=1:-1:-1 / analyse=0x3:0x113 / me=umh / subme=10 / psy=1 / psy_rd=1.00:0.15 / mixed_ref=1 / me_range=48 / chroma_me=1 / trellis=2 / 8x8dct=1 / cqm=0 / deadzone=21,11 / fast_pskip=1 / chroma_qp_offset=-3 / threads=50 / lookahead_threads=4 / sliced_threads=0 / nr=0 / decimate=0 / interlaced=0 / bluray_compat=0 / constrained_intra=0 / bframes=3 / b_pyramid=2 / b_adapt=2 / b_bias=0 / direct=3 / weightb=1 / open_gop=0 / weightp=2 / keyint=250 / keyint_min=23 / scenecut=40 / intra_refresh=0 / rc_lookahead=50 / rc=crf / mbtree=1 / crf=22.0 / qcomp=0.60 / qpmin=0 / qpmax=69 / qpstep=4 / ip_ratio=1.40 / aq=1:1.00
  25. Default                                  : Yes
  26. Forced                                   : No

  27. Audio #1
  28. ID                                       : 2
  29. Format                                   : TrueHD
  30. Format profile                           : TrueHD+Atmos / TrueHD
  31. Codec ID                                 : A_TRUEHD
  32. Duration                                 : 2 h 26 min
  33. Bit rate mode                            : Variable
  34. Bit rate                                 : 5 774 kb/s
  35. Maximum bit rate                         : 8 961 kb/s
  36. Channel(s)                               : Object Based / 8 channels
  37. Channel positions                        : Object Based / Front: L C R, Side: L R, Back: L R, LFE
  38. Sampling rate                            :  / 48.0 kHz
  39. Frame rate                               : 1 200.000 FPS (40 SPF)
  40. Compression mode                         : Lossless
  41. Stream size                              : 5.92 GiB (9%)
  42. Title                                    : Bad.Boys.II.2003.2160p.BluRay.REMUX.HEVC.DTS-HD.MA.TrueHD.7.1.Atmos-FGT
  43. Language                                 : English
  44. Default                                  : Yes
  45. Forced                                   : No

  46. Audio #2
  47. ID                                       : 3
  48. Format                                   : DTS
  49. Format/Info                              : Digital Theater Systems
  50. Format profile                           : MA / Core
  51. Codec ID                                 : A_DTS
  52. Duration                                 : 2 h 26 min
  53. Bit rate mode                            : Variable / Constant
  54. Bit rate                                 : 4 644 kb/s / 1 509 kb/s
  55. Channel(s)                               : 8 channels / 6 channels
  56. Channel positions                        : Front: L C R, Side: L R, Back: L R, LFE / Front: L C R, Side: L R, LFE
  57. Sampling rate                            : 48.0 kHz
  58. Frame rate                               : 93.750 FPS (512 SPF)
  59. Bit depth                                : 24 bits
  60. Compression mode                         : Lossless / Lossy
  61. Stream size                              : 4.76 GiB (8%)
  62. Title                                    : Bad.Boys.II.2003.2160p.BluRay.REMUX.HEVC.DTS-HD.MA.TrueHD.7.1.Atmos-FGT
  63. Language                                 : English
  64. Default                                  : No
  65. Forced                                   : No

  66. Audio #3
  67. ID                                       : 4
  68. Format                                   : AC-3
  69. Format/Info                              : Audio Coding 3
  70. Codec ID                                 : A_AC3
  71. Duration                                 : 2 h 26 min
  72. Bit rate mode                            : Constant
  73. Bit rate                                 : 640 kb/s
  74. Channel(s)                               : 6 channels
  75. Channel positions                        : Front: L C R, Side: L R, LFE
  76. Sampling rate                            : 48.0 kHz
  77. Frame rate                               : 31.250 FPS (1536 SPF)
  78. Bit depth                                : 16 bits
  79. Compression mode                         : Lossy
  80. Stream size                              : 672 MiB (1%)
  81. Title                                    : Bad.Boys.II.2003.2160p.BluRay.REMUX.HEVC.DTS-HD.MA.TrueHD.7.1.Atmos-FGT
  82. Language                                 : English
  83. Service kind                             : Complete Main
  84. Default                                  : No
  85. Forced                                   : No

  86. Text #1
  87. ID                                       : 5
  88. Format                                   : UTF-8
  89. Codec ID                                 : S_TEXT/UTF8
  90. Codec ID/Info                            : UTF-8 Plain Text
  91. Duration                                 : 2 h 20 min
  92. Bit rate                                 : 69 b/s
  93. Count of elements                        : 1912
  94. Stream size                              : 71.6 KiB (0%)
  95. Title                                    : English-SRT
  96. Language                                 : English
  97. Default                                  : Yes
  98. Forced                                   : No

  99. Text #2
  100. ID                                       : 6
  101. Format                                   : PGS
  102. Muxing mode                              : zlib
  103. Codec ID                                 : S_HDMV/PGS
  104. Codec ID/Info                            : Picture based subtitle format used on BDs/HD-DVDs
  105. Duration                                 : 2 h 20 min
  106. Bit rate                                 : 40.2 kb/s
  107. Count of elements                        : 3824
  108. Stream size                              : 40.3 MiB (0%)
  109. Title                                    : English-PGS
  110. Language                                 : English
  111. Default                                  : No
  112. Forced                                   : No

  113. Text #3
  114. ID                                       : 7
  115. Format                                   : PGS
  116. Muxing mode                              : zlib
  117. Codec ID                                 : S_HDMV/PGS
  118. Codec ID/Info                            : Picture based subtitle format used on BDs/HD-DVDs
  119. Duration                                 : 2 h 25 min
  120. Bit rate                                 : 45.3 kb/s
  121. Count of elements                        : 4518
  122. Stream size                              : 47.0 MiB (0%)
  123. Title                                    : English-SDH-PGS
  124. Language                                 : English
  125. Default                                  : No
  126. Forced                                   : No

  127. Text #4
  128. ID                                       : 8
  129. Format                                   : PGS
  130. Muxing mode                              : zlib
  131. Codec ID                                 : S_HDMV/PGS
  132. Codec ID/Info                            : Picture based subtitle format used on BDs/HD-DVDs
  133. Duration                                 : 2 h 20 min
  134. Bit rate                                 : 40.2 kb/s
  135. Count of elements                        : 3832
  136. Stream size                              : 40.3 MiB (0%)
  137. Title                                    : English-PGS
  138. Language                                 : English
  139. Default                                  : No
  140. Forced                                   : No

  141. Text #5
  142. ID                                       : 9
  143. Format                                   : PGS
  144. Muxing mode                              : zlib
  145. Codec ID                                 : S_HDMV/PGS
  146. Codec ID/Info                            : Picture based subtitle format used on BDs/HD-DVDs
  147. Duration                                 : 2 h 25 min
  148. Bit rate                                 : 45.3 kb/s
  149. Count of elements                        : 4518
  150. Stream size                              : 47.0 MiB (0%)
  151. Title                                    : English-SDH-PGS
  152. Language                                 : English
  153. Default                                  : No
  154. Forced                                   : No

  155. Text #6
  156. ID                                       : 10
  157. Format                                   : PGS
  158. Muxing mode                              : zlib
  159. Codec ID                                 : S_HDMV/PGS
  160. Codec ID/Info                            : Picture based subtitle format used on BDs/HD-DVDs
  161. Duration                                 : 2 h 21 min
  162. Bit rate                                 : 19.2 kb/s
  163. Count of elements                        : 3844
  164. Stream size                              : 19.4 MiB (0%)
  165. Title                                    : Arabic-PGS
  166. Language                                 : Arabic
  167. Default                                  : No
  168. Forced                                   : No

  169. Text #7
  170. ID                                       : 11
  171. Format                                   : PGS
  172. Muxing mode                              : zlib
  173. Codec ID                                 : S_HDMV/PGS
  174. Codec ID/Info                            : Picture based subtitle format used on BDs/HD-DVDs
  175. Duration                                 : 2 h 21 min
  176. Bit rate                                 : 26.9 kb/s
  177. Count of elements                        : 3880
  178. Stream size                              : 27.1 MiB (0%)
  179. Title                                    : Chinese-PGS
  180. Language                                 : Chinese
  181. Default                                  : No
  182. Forced                                   : No

  183. Text #8
  184. ID                                       : 12
  185. Format                                   : PGS
  186. Muxing mode                              : zlib
  187. Codec ID                                 : S_HDMV/PGS
  188. Codec ID/Info                            : Picture based subtitle format used on BDs/HD-DVDs
  189. Duration                                 : 2 h 21 min
  190. Bit rate                                 : 28.2 kb/s
  191. Count of elements                        : 3822
  192. Stream size                              : 28.5 MiB (0%)
  193. Title                                    : Croatian-PGS
  194. Language                                 : Croatian
  195. Default                                  : No
  196. Forced                                   : No

  197. Text #9
  198. ID                                       : 13
  199. Format                                   : PGS
  200. Muxing mode                              : zlib
  201. Codec ID                                 : S_HDMV/PGS
  202. Codec ID/Info                            : Picture based subtitle format used on BDs/HD-DVDs
  203. Duration                                 : 2 h 21 min
  204. Bit rate                                 : 31.6 kb/s
  205. Count of elements                        : 3782
  206. Stream size                              : 31.9 MiB (0%)
  207. Title                                    : Czech-PGS
  208. Language                                 : Czech
  209. Default                                  : No
  210. Forced                                   : No

  211. Text #10
  212. ID                                       : 14
  213. Format                                   : PGS
  214. Muxing mode                              : zlib
  215. Codec ID                                 : S_HDMV/PGS
  216. Codec ID/Info                            : Picture based subtitle format used on BDs/HD-DVDs
  217. Duration                                 : 2 h 21 min
  218. Bit rate                                 : 31.3 kb/s
  219. Count of elements                        : 3286
  220. Stream size                              : 31.6 MiB (0%)
  221. Title                                    : Danish-PGS
  222. Language                                 : Danish
  223. Default                                  : No
  224. Forced                                   : No

  225. Text #11
  226. ID                                       : 15
  227. Format                                   : PGS
  228. Muxing mode                              : zlib
  229. Codec ID                                 : S_HDMV/PGS
  230. Codec ID/Info                            : Picture based subtitle format used on BDs/HD-DVDs
  231. Duration                                 : 2 h 20 min
  232. Bit rate                                 : 30.7 kb/s
  233. Count of elements                        : 2647
  234. Stream size                              : 30.9 MiB (0%)
  235. Title                                    : Dutch-PGS
  236. Language                                 : Dutch
  237. Default                                  : No
  238. Forced                                   : No

  239. Text #12
  240. ID                                       : 16
  241. Format                                   : PGS
  242. Muxing mode                              : zlib
  243. Codec ID                                 : S_HDMV/PGS
  244. Codec ID/Info                            : Picture based subtitle format used on BDs/HD-DVDs
  245. Duration                                 : 2 h 21 min
  246. Bit rate                                 : 30.1 kb/s
  247. Count of elements                        : 2982
  248. Stream size                              : 30.4 MiB (0%)
  249. Title                                    : Finnish-PGS
  250. Language                                 : Finnish
  251. Default                                  : No
  252. Forced                                   : No

  253. Text #13
  254. ID                                       : 17
  255. Format                                   : PGS
  256. Muxing mode                              : zlib
  257. Codec ID                                 : S_HDMV/PGS
  258. Codec ID/Info                            : Picture based subtitle format used on BDs/HD-DVDs
  259. Duration                                 : 2 h 25 min
  260. Bit rate                                 : 27.0 kb/s
  261. Count of elements                        : 3586
  262. Stream size                              : 28.1 MiB (0%)
  263. Title                                    : French-PGS
  264. Language                                 : French
  265. Default                                  : No
  266. Forced                                   : No

  267. Text #14
  268. ID                                       : 18
  269. Format                                   : PGS
  270. Muxing mode                              : zlib
  271. Codec ID                                 : S_HDMV/PGS
  272. Codec ID/Info                            : Picture based subtitle format used on BDs/HD-DVDs
  273. Duration                                 : 2 h 21 min
  274. Bit rate                                 : 44.1 kb/s
  275. Count of elements                        : 3951
  276. Stream size                              : 44.5 MiB (0%)
  277. Title                                    : German-PGS
  278. Language                                 : German
  279. Default                                  : No
  280. Forced                                   : No

  281. Text #15
  282. ID                                       : 19
  283. Format                                   : PGS
  284. Muxing mode                              : zlib
  285. Codec ID                                 : S_HDMV/PGS
  286. Codec ID/Info                            : Picture based subtitle format used on BDs/HD-DVDs
  287. Duration                                 : 2 h 21 min
  288. Bit rate                                 : 35.3 kb/s
  289. Count of elements                        : 3738
  290. Stream size                              : 35.6 MiB (0%)
  291. Title                                    : Greek-PGS
  292. Language                                 : Greek
  293. Default                                  : No
  294. Forced                                   : No

  295. Text #16
  296. ID                                       : 20
  297. Format                                   : PGS
  298. Muxing mode                              : zlib
  299. Codec ID                                 : S_HDMV/PGS
  300. Codec ID/Info                            : Picture based subtitle format used on BDs/HD-DVDs
  301. Duration                                 : 2 h 20 min
  302. Bit rate                                 : 29.4 kb/s
  303. Count of elements                        : 3838
  304. Stream size                              : 29.6 MiB (0%)
  305. Title                                    : Hebrew-PGS
  306. Language                                 : Hebrew
  307. Default                                  : No
  308. Forced                                   : No

  309. Text #17
  310. ID                                       : 21
  311. Format                                   : PGS
  312. Muxing mode                              : zlib
  313. Codec ID                                 : S_HDMV/PGS
  314. Codec ID/Info                            : Picture based subtitle format used on BDs/HD-DVDs
  315. Duration                                 : 2 h 21 min
  316. Bit rate                                 : 27.6 kb/s
  317. Count of elements                        : 3846
  318. Stream size                              : 27.8 MiB (0%)
  319. Title                                    : Hungarian-PGS
  320. Language                                 : Hungarian
  321. Default                                  : No
  322. Forced                                   : No

  323. Text #18
  324. ID                                       : 22
  325. Format                                   : PGS
  326. Muxing mode                              : zlib
  327. Codec ID                                 : S_HDMV/PGS
  328. Codec ID/Info                            : Picture based subtitle format used on BDs/HD-DVDs
  329. Duration                                 : 2 h 20 min
  330. Bit rate                                 : 36.5 kb/s
  331. Count of elements                        : 3822
  332. Stream size                              : 36.8 MiB (0%)
  333. Title                                    : Italian-PGS
  334. Language                                 : Italian
  335. Default                                  : No
  336. Forced                                   : No

  337. Text #19
  338. ID                                       : 23
  339. Format                                   : PGS
  340. Muxing mode                              : zlib
  341. Codec ID                                 : S_HDMV/PGS
  342. Codec ID/Info                            : Picture based subtitle format used on BDs/HD-DVDs
  343. Duration                                 : 2 h 20 min
  344. Bit rate                                 : 27.2 kb/s
  345. Count of elements                        : 4193
  346. Stream size                              : 27.4 MiB (0%)
  347. Title                                    : Japanese-pGS
  348. Language                                 : Japanese
  349. Default                                  : No
  350. Forced                                   : No

  351. Text #20
  352. ID                                       : 24
  353. Format                                   : PGS
  354. Muxing mode                              : zlib
  355. Codec ID                                 : S_HDMV/PGS
  356. Codec ID/Info                            : Picture based subtitle format used on BDs/HD-DVDs
  357. Duration                                 : 2 h 21 min
  358. Bit rate                                 : 27.2 kb/s
  359. Count of elements                        : 3874
  360. Stream size                              : 27.5 MiB (0%)
  361. Title                                    : Korean-PGS
  362. Language                                 : Korean
  363. Default                                  : No
  364. Forced                                   : No

  365. Text #21
  366. ID                                       : 25
  367. Format                                   : PGS
  368. Muxing mode                              : zlib
  369. Codec ID                                 : S_HDMV/PGS
  370. Codec ID/Info                            : Picture based subtitle format used on BDs/HD-DVDs
  371. Duration                                 : 2 h 26 min
  372. Bit rate                                 : 27.7 kb/s
  373. Count of elements                        : 3518
  374. Stream size                              : 28.9 MiB (0%)
  375. Title                                    : Norwegian-PGS
  376. Language                                 : Norwegian
  377. Default                                  : No
  378. Forced                                   : No

  379. Text #22
  380. ID                                       : 26
  381. Format                                   : PGS
  382. Muxing mode                              : zlib
  383. Codec ID                                 : S_HDMV/PGS
  384. Codec ID/Info                            : Picture based subtitle format used on BDs/HD-DVDs
  385. Duration                                 : 2 h 21 min
  386. Bit rate                                 : 31.3 kb/s
  387. Count of elements                        : 3764
  388. Stream size                              : 31.6 MiB (0%)
  389. Title                                    : Polish-PGS
  390. Language                                 : Polish
  391. Default                                  : No
  392. Forced                                   : No

  393. Text #23
  394. ID                                       : 27
  395. Format                                   : PGS
  396. Muxing mode                              : zlib
  397. Codec ID                                 : S_HDMV/PGS
  398. Codec ID/Info                            : Picture based subtitle format used on BDs/HD-DVDs
  399. Duration                                 : 2 h 21 min
  400. Bit rate                                 : 31.0 kb/s
  401. Count of elements                        : 3738
  402. Stream size                              : 31.3 MiB (0%)
  403. Title                                    : Portuguese-PGS
  404. Language                                 : Portuguese
  405. Default                                  : No
  406. Forced                                   : No

  407. Text #24
  408. ID                                       : 28
  409. Format                                   : PGS
  410. Muxing mode                              : zlib
  411. Codec ID                                 : S_HDMV/PGS
  412. Codec ID/Info                            : Picture based subtitle format used on BDs/HD-DVDs
  413. Duration                                 : 2 h 26 min
  414. Bit rate                                 : 38.2 kb/s
  415. Count of elements                        : 3792
  416. Stream size                              : 39.9 MiB (0%)
  417. Title                                    : Portuguese-PGS
  418. Language                                 : Portuguese
  419. Default                                  : No
  420. Forced                                   : No

  421. Text #25
  422. ID                                       : 29
  423. Format                                   : PGS
  424. Muxing mode                              : zlib
  425. Codec ID                                 : S_HDMV/PGS
  426. Codec ID/Info                            : Picture based subtitle format used on BDs/HD-DVDs
  427. Duration                                 : 2 h 21 min
  428. Bit rate                                 : 31.0 kb/s
  429. Count of elements                        : 3554
  430. Stream size                              : 31.3 MiB (0%)
  431. Title                                    : Romanian-PGS
  432. Language                                 : Romanian
  433. Default                                  : No
  434. Forced                                   : No

  435. Text #26
  436. ID                                       : 30
  437. Format                                   : PGS
  438. Muxing mode                              : zlib
  439. Codec ID                                 : S_HDMV/PGS
  440. Codec ID/Info                            : Picture based subtitle format used on BDs/HD-DVDs
  441. Duration                                 : 2 h 21 min
  442. Bit rate                                 : 41.9 kb/s
  443. Count of elements                        : 3964
  444. Stream size                              : 42.3 MiB (0%)
  445. Title                                    : Russian-PGS
  446. Language                                 : Russian
  447. Default                                  : No
  448. Forced                                   : No

  449. Text #27
  450. ID                                       : 31
  451. Format                                   : PGS
  452. Muxing mode                              : zlib
  453. Codec ID                                 : S_HDMV/PGS
  454. Codec ID/Info                            : Picture based subtitle format used on BDs/HD-DVDs
  455. Duration                                 : 2 h 21 min
  456. Bit rate                                 : 34.3 kb/s
  457. Count of elements                        : 3952
  458. Stream size                              : 34.6 MiB (0%)
  459. Title                                    : Spanish-PGS
  460. Language                                 : Spanish
  461. Default                                  : No
  462. Forced                                   : No

  463. Text #28
  464. ID                                       : 32
  465. Format                                   : PGS
  466. Muxing mode                              : zlib
  467. Codec ID                                 : S_HDMV/PGS
  468. Codec ID/Info                            : Picture based subtitle format used on BDs/HD-DVDs
  469. Duration                                 : 2 h 21 min
  470. Bit rate                                 : 37.3 kb/s
  471. Count of elements                        : 3904
  472. Stream size                              : 37.6 MiB (0%)
  473. Title                                    : Spanish-PGS
  474. Language                                 : Spanish
  475. Default                                  : No
  476. Forced                                   : No

  477. Text #29
  478. ID                                       : 33
  479. Format                                   : PGS
  480. Muxing mode                              : zlib
  481. Codec ID                                 : S_HDMV/PGS
  482. Codec ID/Info                            : Picture based subtitle format used on BDs/HD-DVDs
  483. Duration                                 : 2 h 25 min
  484. Bit rate                                 : 29.1 kb/s
  485. Count of elements                        : 3391
  486. Stream size                              : 30.3 MiB (0%)
  487. Title                                    : Swedish-PGS
  488. Language                                 : Swedish
  489. Default                                  : No
  490. Forced                                   : No

  491. Text #30
  492. ID                                       : 34
  493. Format                                   : PGS
  494. Muxing mode                              : zlib
  495. Codec ID                                 : S_HDMV/PGS
  496. Codec ID/Info                            : Picture based subtitle format used on BDs/HD-DVDs
  497. Duration                                 : 2 h 21 min
  498. Bit rate                                 : 34.0 kb/s
  499. Count of elements                        : 3874
  500. Stream size                              : 34.3 MiB (0%)
  501. Title                                    : Thai-PGS
  502. Language                                 : Thai
  503. Default                                  : No
  504. Forced                                   : No

  505. Text #31
  506. ID                                       : 35
  507. Format                                   : PGS
  508. Muxing mode                              : zlib
  509. Codec ID                                 : S_HDMV/PGS
  510. Codec ID/Info                            : Picture based subtitle format used on BDs/HD-DVDs
  511. Duration                                 : 2 h 21 min
  512. Bit rate                                 : 38.0 kb/s
  513. Count of elements                        : 3868
  514. Stream size                              : 38.4 MiB (0%)
  515. Title                                    : Turkish-PGS
  516. Language                                 : Turkish
  517. Default                                  : No
  518. Forced                                   : No

  519. Text #32
  520. ID                                       : 36
  521. Format                                   : PGS
  522. Muxing mode                              : zlib
  523. Codec ID                                 : S_HDMV/PGS
  524. Codec ID/Info                            : Picture based subtitle format used on BDs/HD-DVDs
  525. Duration                                 : 57 min 30 s
  526. Bit rate                                 : 239 b/s
  527. Count of elements                        : 14
  528. Stream size                              : 101 KiB (0%)
  529. Title                                    : French-FORCED-PGS
  530. Language                                 : French
  531. Default                                  : No
  532. Forced                                   : No

  533. Text #33
  534. ID                                       : 37
  535. Format                                   : PGS
  536. Muxing mode                              : zlib
  537. Codec ID                                 : S_HDMV/PGS
  538. Codec ID/Info                            : Picture based subtitle format used on BDs/HD-DVDs
  539. Duration                                 : 1 h 34 min
  540. Bit rate                                 : 288 b/s
  541. Count of elements                        : 26
  542. Stream size                              : 200 KiB (0%)
  543. Title                                    : Japanese-FORCED-PGS
  544. Language                                 : Japanese
  545. Default                                  : No
  546. Forced                                   : No

  547. Menu
  548. 00:00:00.000                             : :Chapter 1
  549. 00:11:05.498                             : :Chapter 2
  550. 00:21:55.397                             : :Chapter 3
  551. 00:39:55.768                             : :Chapter 4
  552. 00:45:28.684                             : :Chapter 5
  553. 00:53:28.788                             : :Chapter 6
  554. 00:59:02.247                             : :Chapter 7
  555. 01:06:27.066                             : :Chapter 8
  556. 01:11:29.618                             : :Chapter 9
  557. 01:17:54.169                             : :Chapter 10
  558. 01:30:28.131                             : :Chapter 11
  559. 01:37:39.228                             : :Chapter 12
  560. 01:45:54.765                             : :Chapter 13
  561. 01:56:47.625                             : :Chapter 14
  562. 02:05:08.584                             : :Chapter 15
  563. 02:16:07.701                             : :Chapter 16
复制代码

复制代码

绝地战警2/重案梦幻组2 Bad.Boys.II.2003.2160p.BluRay.x264.8bit.SDR.DTS-HD.MA.TrueHD.7.1.Atmos-SWTYBLZ 63.27GB-2.png 绝地战警2/重案梦幻组2 Bad.Boys.II.2003.2160p.BluRay.x264.8bit.SDR.DTS-HD.MA.TrueHD.7.1.Atmos-SWTYBLZ 63.27GB-3.png 绝地战警2/重案梦幻组2 Bad.Boys.II.2003.2160p.BluRay.x264.8bit.SDR.DTS-HD.MA.TrueHD.7.1.Atmos-SWTYBLZ 63.27GB-4.png 绝地战警2/重案梦幻组2 Bad.Boys.II.2003.2160p.BluRay.x264.8bit.SDR.DTS-HD.MA.TrueHD.7.1.Atmos-SWTYBLZ 63.27GB-5.png 绝地战警2/重案梦幻组2 Bad.Boys.II.2003.2160p.BluRay.x264.8bit.SDR.DTS-HD.MA.TrueHD.7.1.Atmos-SWTYBLZ 63.27GB-6.png 绝地战警2/重案梦幻组2 Bad.Boys.II.2003.2160p.BluRay.x264.8bit.SDR.DTS-HD.MA.TrueHD.7.1.Atmos-SWTYBLZ 63.27GB-7.png 绝地战警2/重案梦幻组2 Bad.Boys.II.2003.2160p.BluRay.x264.8bit.SDR.DTS-HD.MA.TrueHD.7.1.Atmos-SWTYBLZ 63.27GB-8.png






回复

使用道具 举报

蓝光币
265
发表于 2018-9-10 19:09:59 | 显示全部楼层
强烈支持楼主ing……
回复 支持 反对

使用道具 举报

懒得打字嘛,点击右侧快捷回复 【右侧内容,后台自定义】
您需要登录后才可以回帖 登录 | 立即加入

本版积分规则

Archiver|小黑屋| 蓝光电影网 |网站地图

Copyright © 2021 Comsenz Inc. Powered by 蓝光电影网

蓝光电影网

本站内容由用户自主分享和转载自互联网,转载目的在于传递更多信息,并不代表本网赞同其观点和对其真实性负责。

如有侵权、违反国家法律政策行为,请联系我们,我们会第一时间及时清除和处理!

举报反馈邮箱:[email protected]

快速回复 返回顶部 返回列表