找回密码

蓝光电影网

查看: 928|回复: 9

绝地战警2/重案梦幻组2 Bad.Boys.II.2003.2160p.BluRay.x265.10bit.SDR.DTS-HD.MA.TrueHD.7.1.Atmos-SWTYBLZ 57.09GB

[复制链接]
蓝光币
623
发表于 2018-9-9 23:11:53 | 显示全部楼层 |阅读模式

绝地战警2/重案梦幻组2 Bad.Boys.II.2003.2160p.BluRay.x265.10bit.SDR.DTS-HD.MA.TrueHD.7.1.Atmos-SWTYBLZ 57.09GB-1.jpg
◎译  名 绝地战警2/重案梦幻组2/坏小子2
◎片  名 Bad Boys II
◎年  代 2003
◎产  地 美国
◎类  别 笑剧/行动/犯罪
◎语  言 英语/葡萄牙语
◎上映日期 2003-07-18(美国)
◎豆瓣评分 7.4/10 from 21,442 users
◎豆瓣链接 https://movie.douban.com/subject/1307917/
◎片  长 147 分钟
◎导  演 迈克尔·贝 Michael Bay
◎主  演 马丁·劳伦斯 Martin Lawrence
      威尔·史姑娘 Will Smith
      詹迪·莫拉 Jordi Mollà
      加布里埃尔·尤尼恩 Gabrielle Union
      彼得·斯特曼 Peter Stormare
      特里萨·兰德尔 Theresa Randle
      乔·潘托里亚诺 Joe Pantoliano
      迈克尔·珊农 Michael Shannon
      乔恩·塞达 Jon Seda
      尤尔·瓦斯克斯 Yul Vazquez
      贾森·曼努尔·奥拉扎巴尔 Jason Manuel Olazabal
      奥托·桑切斯 Otto Sanchez
      亨利·罗林斯 Henry Rollins
      安东尼·科隆 Antoni Corone
      Gary Nickens

◎简  介

  本片是《坏小子》的续篇,故事仍发生在迈阿密。迈阿密的毒品买卖于一夜之间变得异常疯狂众多,各个贩毒团体之间的火拼也接连不竭,为了观察贩毒团体内部的重重冲突,迈阿密警局的一对“黄金”同伴,潇洒的劳瑞(威尔?史姑娘)和神叨的宾纳(马丁?劳伦斯)再度临危受命,很快,两人摸清工作的后果结果:一股外来的贩毒势力正在侵入迈阿密的毒品市场,为首的毒枭野心勃勃,意图控制全部美国甚至欧洲的毒品买卖,建立贩毒王国。
  警方展开行动围歼贩毒团体时,一位DEA的女卧底西德妮(盖布瑞亚?尤妮恩)被毒贩劫持,对方开出的条件是,劳瑞和宾纳必须去干违法的事,这可难倒了两人,由于标致的西德妮不单是宾纳的亲妹妹,还是劳瑞的情人。

  1. Video
  2. ID                                       : 1
  3. Format                                   : HEVC
  4. Format/Info                              : High Efficiency Video Coding
  5. Format profile                           : Main [url=/cdn-cgi/l/email-protection][email protected][/url]@High
  6. Codec ID                                 : V_MPEGH/ISO/HEVC
  7. Duration                                 : 2 h 26 min
  8. Bit rate                                 : 44.0 Mb/s
  9. Width                                    : 3 840 pixels
  10. Height                                   : 1 606 pixels
  11. Display aspect ratio                     : 2.40:1
  12. Frame rate mode                          : Constant
  13. Frame rate                               : 23.976 (24000/1001) FPS
  14. Color space                              : YUV
  15. Chroma subsampling                       : 4:2:0
  16. Bit depth                                : 10 bits
  17. Bits/(Pixel*Frame)                       : 0.297
  18. Stream size                              : 45.1 GiB (79%)
  19. Title                                    : Bad.Boys.II.2003.2160p.BluRay.x265.10bit.SDR.DTS-HD.MA.TrueHD.7.1.Atmos-SWTYBLZ
  20. Writing library                          : x265 2.8+54-79c76e42cb28:[Windows][GCC 7.3.1][64 bit] 10bit
  21. Encoding settings                        : cpuid=1111039 / frame-threads=16 / numa-pools=24,24,24,24 / wpp / no-pmode / no-pme / no-psnr / no-ssim / log-level=2 / input-csp=1 / input-res=3840x1606 / interlace=0 / total-frames=0 / level-idc=51 / high-tier=1 / uhd-bd=0 / ref=3 / no-allow-non-conformance / repeat-headers / annexb / aud / hrd / info / hash=0 / no-temporal-layers / no-open-gop / min-keyint=1 / keyint=24 / gop-lookahead=0 / bframes=4 / b-adapt=2 / b-pyramid / bframe-bias=0 / rc-lookahead=25 / lookahead-slices=4 / scenecut=40 / radl=0 / no-intra-refresh / ctu=64 / min-cu-size=8 / no-rect / no-amp / max-tu-size=32 / tu-inter-depth=1 / tu-intra-depth=1 / limit-tu=0 / rdoq-level=0 / dynamic-rd=0.00 / no-ssim-rd / signhide / no-tskip / nr-intra=0 / nr-inter=0 / no-constrained-intra / strong-intra-smoothing / max-merge=2 / limit-refs=3 / no-limit-modes / me=1 / subme=2 / merange=57 / temporal-mvp / weightp / no-weightb / no-analyze-src-pics / deblock=0:0 / no-sao / no-sao-non-deblock / rd=3 / no-early-skip / rskip / no-fast-intra / no-tskip-fast / no-cu-lossless / no-b-intra / no-splitrd-skip / rdpenalty=0 / psy-rd=2.00 / psy-rdoq=0.00 / no-rd-refine / no-lossless / cbqpoffs=0 / crqpoffs=0 / rc=crf / crf=20.0 / qcomp=0.60 / qpstep=4 / stats-write=0 / stats-read=0 / vbv-maxrate=160000 / vbv-bufsize=160000 / vbv-init=0.9 / crf-max=0.0 / crf-min=0.0 / ipratio=1.40 / pbratio=1.30 / aq-mode=1 / aq-strength=1.00 / cutree / zone-count=0 / no-strict-cbr / qg-size=32 / no-rc-grain / qpmax=69 / qpmin=0 / no-const-vbv / sar=1 / overscan=0 / videoformat=5 / range=0 / colorprim=2 / transfer=2 / colormatrix=2 / chromaloc=0 / display-window=0 / max-cll=0,0 / min-luma=0 / max-luma=1023 / log2-max-poc-lsb=8 / vui-timing-info / vui-hrd-info / slices=1 / opt-qp-pps / opt-ref-list-length-pps / no-multi-pass-opt-rps / scenecut-bias=0.05 / no-opt-cu-delta-qp / no-aq-motion / no-hdr / no-hdr-opt / no-dhdr10-opt / no-idr-recovery-sei / analysis-reuse-level=5 / scale-factor=0 / refine-intra=0 / refine-inter=0 / refine-mv=0 / no-limit-sao / ctu-info=0 / no-lowpass-dct / refine-mv-type=0 / copy-pic=1 / max-ausize-factor=1.0 / no-dynamic-refine / no-single-sei
  22. Default                                  : Yes
  23. Forced                                   : No

  24. Audio #1
  25. ID                                       : 2
  26. Format                                   : TrueHD
  27. Format profile                           : TrueHD+Atmos / TrueHD
  28. Codec ID                                 : A_TRUEHD
  29. Duration                                 : 2 h 26 min
  30. Bit rate mode                            : Variable
  31. Bit rate                                 : 5 774 kb/s
  32. Maximum bit rate                         : 8 961 kb/s
  33. Channel(s)                               : Object Based / 8 channels
  34. Channel positions                        : Object Based / Front: L C R, Side: L R, Back: L R, LFE
  35. Sampling rate                            :  / 48.0 kHz
  36. Frame rate                               : 1 200.000 FPS (40 SPF)
  37. Compression mode                         : Lossless
  38. Stream size                              : 5.92 GiB (10%)
  39. Title                                    : Bad.Boys.II.2003.2160p.BluRay.x265.10bit.SDR.DTS-HD.MA.TrueHD.7.1.Atmos-SWTYBLZ
  40. Language                                 : English
  41. Default                                  : Yes
  42. Forced                                   : No

  43. Audio #2
  44. ID                                       : 3
  45. Format                                   : DTS
  46. Format/Info                              : Digital Theater Systems
  47. Format profile                           : MA / Core
  48. Codec ID                                 : A_DTS
  49. Duration                                 : 2 h 26 min
  50. Bit rate mode                            : Variable / Constant
  51. Bit rate                                 : 4 644 kb/s / 1 509 kb/s
  52. Channel(s)                               : 8 channels / 6 channels
  53. Channel positions                        : Front: L C R, Side: L R, Back: L R, LFE / Front: L C R, Side: L R, LFE
  54. Sampling rate                            : 48.0 kHz
  55. Frame rate                               : 93.750 FPS (512 SPF)
  56. Bit depth                                : 24 bits
  57. Compression mode                         : Lossless / Lossy
  58. Stream size                              : 4.76 GiB (8%)
  59. Title                                    : Bad.Boys.II.2003.2160p.BluRay.x265.10bit.SDR.DTS-HD.MA.TrueHD.7.1.Atmos-SWTYBLZ
  60. Language                                 : English
  61. Default                                  : No
  62. Forced                                   : No

  63. Audio #3
  64. ID                                       : 4
  65. Format                                   : AC-3
  66. Format/Info                              : Audio Coding 3
  67. Codec ID                                 : A_AC3
  68. Duration                                 : 2 h 26 min
  69. Bit rate mode                            : Constant
  70. Bit rate                                 : 640 kb/s
  71. Channel(s)                               : 6 channels
  72. Channel positions                        : Front: L C R, Side: L R, LFE
  73. Sampling rate                            : 48.0 kHz
  74. Frame rate                               : 31.250 FPS (1536 SPF)
  75. Bit depth                                : 16 bits
  76. Compression mode                         : Lossy
  77. Stream size                              : 672 MiB (1%)
  78. Title                                    : Bad.Boys.II.2003.2160p.BluRay.x265.10bit.SDR.DTS-HD.MA.TrueHD.7.1.Atmos-SWTYBLZ
  79. Language                                 : English
  80. Service kind                             : Complete Main
  81. Default                                  : No
  82. Forced                                   : No

  83. Text #1
  84. ID                                       : 5
  85. Format                                   : UTF-8
  86. Codec ID                                 : S_TEXT/UTF8
  87. Codec ID/Info                            : UTF-8 Plain Text
  88. Duration                                 : 2 h 20 min
  89. Bit rate                                 : 69 b/s
  90. Count of elements                        : 1912
  91. Stream size                              : 71.6 KiB (0%)
  92. Title                                    : English-SRT
  93. Language                                 : English
  94. Default                                  : Yes
  95. Forced                                   : No

  96. Text #2
  97. ID                                       : 6
  98. Format                                   : PGS
  99. Muxing mode                              : zlib
  100. Codec ID                                 : S_HDMV/PGS
  101. Codec ID/Info                            : Picture based subtitle format used on BDs/HD-DVDs
  102. Duration                                 : 2 h 20 min
  103. Bit rate                                 : 40.2 kb/s
  104. Count of elements                        : 3824
  105. Stream size                              : 40.3 MiB (0%)
  106. Title                                    : English-PGS
  107. Language                                 : English
  108. Default                                  : No
  109. Forced                                   : No

  110. Text #3
  111. ID                                       : 7
  112. Format                                   : PGS
  113. Muxing mode                              : zlib
  114. Codec ID                                 : S_HDMV/PGS
  115. Codec ID/Info                            : Picture based subtitle format used on BDs/HD-DVDs
  116. Duration                                 : 2 h 25 min
  117. Bit rate                                 : 45.3 kb/s
  118. Count of elements                        : 4518
  119. Stream size                              : 47.0 MiB (0%)
  120. Title                                    : English-SDH-PGS
  121. Language                                 : English
  122. Default                                  : No
  123. Forced                                   : No

  124. Text #4
  125. ID                                       : 8
  126. Format                                   : PGS
  127. Muxing mode                              : zlib
  128. Codec ID                                 : S_HDMV/PGS
  129. Codec ID/Info                            : Picture based subtitle format used on BDs/HD-DVDs
  130. Duration                                 : 2 h 20 min
  131. Bit rate                                 : 40.2 kb/s
  132. Count of elements                        : 3832
  133. Stream size                              : 40.3 MiB (0%)
  134. Title                                    : English-PGS
  135. Language                                 : English
  136. Default                                  : No
  137. Forced                                   : No

  138. Text #5
  139. ID                                       : 9
  140. Format                                   : PGS
  141. Muxing mode                              : zlib
  142. Codec ID                                 : S_HDMV/PGS
  143. Codec ID/Info                            : Picture based subtitle format used on BDs/HD-DVDs
  144. Duration                                 : 2 h 25 min
  145. Bit rate                                 : 45.3 kb/s
  146. Count of elements                        : 4518
  147. Stream size                              : 47.0 MiB (0%)
  148. Title                                    : English-SDH-PGS
  149. Language                                 : English
  150. Default                                  : No
  151. Forced                                   : No

  152. Text #6
  153. ID                                       : 10
  154. Format                                   : PGS
  155. Muxing mode                              : zlib
  156. Codec ID                                 : S_HDMV/PGS
  157. Codec ID/Info                            : Picture based subtitle format used on BDs/HD-DVDs
  158. Duration                                 : 2 h 21 min
  159. Bit rate                                 : 19.2 kb/s
  160. Count of elements                        : 3844
  161. Stream size                              : 19.4 MiB (0%)
  162. Title                                    : Arabic-PGS
  163. Language                                 : Arabic
  164. Default                                  : No
  165. Forced                                   : No

  166. Text #7
  167. ID                                       : 11
  168. Format                                   : PGS
  169. Muxing mode                              : zlib
  170. Codec ID                                 : S_HDMV/PGS
  171. Codec ID/Info                            : Picture based subtitle format used on BDs/HD-DVDs
  172. Duration                                 : 2 h 21 min
  173. Bit rate                                 : 26.9 kb/s
  174. Count of elements                        : 3880
  175. Stream size                              : 27.1 MiB (0%)
  176. Title                                    : Chinese-PGS
  177. Language                                 : Chinese
  178. Default                                  : No
  179. Forced                                   : No

  180. Text #8
  181. ID                                       : 12
  182. Format                                   : PGS
  183. Muxing mode                              : zlib
  184. Codec ID                                 : S_HDMV/PGS
  185. Codec ID/Info                            : Picture based subtitle format used on BDs/HD-DVDs
  186. Duration                                 : 2 h 21 min
  187. Bit rate                                 : 28.2 kb/s
  188. Count of elements                        : 3822
  189. Stream size                              : 28.5 MiB (0%)
  190. Title                                    : Croatian-PGS
  191. Language                                 : Croatian
  192. Default                                  : No
  193. Forced                                   : No

  194. Text #9
  195. ID                                       : 13
  196. Format                                   : PGS
  197. Muxing mode                              : zlib
  198. Codec ID                                 : S_HDMV/PGS
  199. Codec ID/Info                            : Picture based subtitle format used on BDs/HD-DVDs
  200. Duration                                 : 2 h 21 min
  201. Bit rate                                 : 31.6 kb/s
  202. Count of elements                        : 3782
  203. Stream size                              : 31.9 MiB (0%)
  204. Title                                    : Czech-PGS
  205. Language                                 : Czech
  206. Default                                  : No
  207. Forced                                   : No

  208. Text #10
  209. ID                                       : 14
  210. Format                                   : PGS
  211. Muxing mode                              : zlib
  212. Codec ID                                 : S_HDMV/PGS
  213. Codec ID/Info                            : Picture based subtitle format used on BDs/HD-DVDs
  214. Duration                                 : 2 h 21 min
  215. Bit rate                                 : 31.3 kb/s
  216. Count of elements                        : 3286
  217. Stream size                              : 31.6 MiB (0%)
  218. Title                                    : Danish-PGS
  219. Language                                 : Danish
  220. Default                                  : No
  221. Forced                                   : No

  222. Text #11
  223. ID                                       : 15
  224. Format                                   : PGS
  225. Muxing mode                              : zlib
  226. Codec ID                                 : S_HDMV/PGS
  227. Codec ID/Info                            : Picture based subtitle format used on BDs/HD-DVDs
  228. Duration                                 : 2 h 20 min
  229. Bit rate                                 : 30.7 kb/s
  230. Count of elements                        : 2647
  231. Stream size                              : 30.9 MiB (0%)
  232. Title                                    : Dutch-PGS
  233. Language                                 : Dutch
  234. Default                                  : No
  235. Forced                                   : No

  236. Text #12
  237. ID                                       : 16
  238. Format                                   : PGS
  239. Muxing mode                              : zlib
  240. Codec ID                                 : S_HDMV/PGS
  241. Codec ID/Info                            : Picture based subtitle format used on BDs/HD-DVDs
  242. Duration                                 : 2 h 21 min
  243. Bit rate                                 : 30.1 kb/s
  244. Count of elements                        : 2982
  245. Stream size                              : 30.4 MiB (0%)
  246. Title                                    : Finnish-PGS
  247. Language                                 : Finnish
  248. Default                                  : No
  249. Forced                                   : No

  250. Text #13
  251. ID                                       : 17
  252. Format                                   : PGS
  253. Muxing mode                              : zlib
  254. Codec ID                                 : S_HDMV/PGS
  255. Codec ID/Info                            : Picture based subtitle format used on BDs/HD-DVDs
  256. Duration                                 : 2 h 25 min
  257. Bit rate                                 : 27.0 kb/s
  258. Count of elements                        : 3586
  259. Stream size                              : 28.1 MiB (0%)
  260. Title                                    : French-PGS
  261. Language                                 : French
  262. Default                                  : No
  263. Forced                                   : No

  264. Text #14
  265. ID                                       : 18
  266. Format                                   : PGS
  267. Muxing mode                              : zlib
  268. Codec ID                                 : S_HDMV/PGS
  269. Codec ID/Info                            : Picture based subtitle format used on BDs/HD-DVDs
  270. Duration                                 : 2 h 21 min
  271. Bit rate                                 : 44.1 kb/s
  272. Count of elements                        : 3951
  273. Stream size                              : 44.5 MiB (0%)
  274. Title                                    : German-PGS
  275. Language                                 : German
  276. Default                                  : No
  277. Forced                                   : No

  278. Text #15
  279. ID                                       : 19
  280. Format                                   : PGS
  281. Muxing mode                              : zlib
  282. Codec ID                                 : S_HDMV/PGS
  283. Codec ID/Info                            : Picture based subtitle format used on BDs/HD-DVDs
  284. Duration                                 : 2 h 21 min
  285. Bit rate                                 : 35.3 kb/s
  286. Count of elements                        : 3738
  287. Stream size                              : 35.6 MiB (0%)
  288. Title                                    : Greek-PGS
  289. Language                                 : Greek
  290. Default                                  : No
  291. Forced                                   : No

  292. Text #16
  293. ID                                       : 20
  294. Format                                   : PGS
  295. Muxing mode                              : zlib
  296. Codec ID                                 : S_HDMV/PGS
  297. Codec ID/Info                            : Picture based subtitle format used on BDs/HD-DVDs
  298. Duration                                 : 2 h 20 min
  299. Bit rate                                 : 29.4 kb/s
  300. Count of elements                        : 3838
  301. Stream size                              : 29.6 MiB (0%)
  302. Title                                    : Hebrew-PGS
  303. Language                                 : Hebrew
  304. Default                                  : No
  305. Forced                                   : No

  306. Text #17
  307. ID                                       : 21
  308. Format                                   : PGS
  309. Muxing mode                              : zlib
  310. Codec ID                                 : S_HDMV/PGS
  311. Codec ID/Info                            : Picture based subtitle format used on BDs/HD-DVDs
  312. Duration                                 : 2 h 21 min
  313. Bit rate                                 : 27.6 kb/s
  314. Count of elements                        : 3846
  315. Stream size                              : 27.8 MiB (0%)
  316. Title                                    : Hungarian-PGS
  317. Language                                 : Hungarian
  318. Default                                  : No
  319. Forced                                   : No

  320. Text #18
  321. ID                                       : 22
  322. Format                                   : PGS
  323. Muxing mode                              : zlib
  324. Codec ID                                 : S_HDMV/PGS
  325. Codec ID/Info                            : Picture based subtitle format used on BDs/HD-DVDs
  326. Duration                                 : 2 h 20 min
  327. Bit rate                                 : 36.5 kb/s
  328. Count of elements                        : 3822
  329. Stream size                              : 36.8 MiB (0%)
  330. Title                                    : Italian-PGS
  331. Language                                 : Italian
  332. Default                                  : No
  333. Forced                                   : No

  334. Text #19
  335. ID                                       : 23
  336. Format                                   : PGS
  337. Muxing mode                              : zlib
  338. Codec ID                                 : S_HDMV/PGS
  339. Codec ID/Info                            : Picture based subtitle format used on BDs/HD-DVDs
  340. Duration                                 : 2 h 20 min
  341. Bit rate                                 : 27.2 kb/s
  342. Count of elements                        : 4193
  343. Stream size                              : 27.4 MiB (0%)
  344. Title                                    : Japanese-pGS
  345. Language                                 : Japanese
  346. Default                                  : No
  347. Forced                                   : No

  348. Text #20
  349. ID                                       : 24
  350. Format                                   : PGS
  351. Muxing mode                              : zlib
  352. Codec ID                                 : S_HDMV/PGS
  353. Codec ID/Info                            : Picture based subtitle format used on BDs/HD-DVDs
  354. Duration                                 : 2 h 21 min
  355. Bit rate                                 : 27.2 kb/s
  356. Count of elements                        : 3874
  357. Stream size                              : 27.5 MiB (0%)
  358. Title                                    : Korean-PGS
  359. Language                                 : Korean
  360. Default                                  : No
  361. Forced                                   : No

  362. Text #21
  363. ID                                       : 25
  364. Format                                   : PGS
  365. Muxing mode                              : zlib
  366. Codec ID                                 : S_HDMV/PGS
  367. Codec ID/Info                            : Picture based subtitle format used on BDs/HD-DVDs
  368. Duration                                 : 2 h 26 min
  369. Bit rate                                 : 27.7 kb/s
  370. Count of elements                        : 3518
  371. Stream size                              : 28.9 MiB (0%)
  372. Title                                    : Norwegian-PGS
  373. Language                                 : Norwegian
  374. Default                                  : No
  375. Forced                                   : No

  376. Text #22
  377. ID                                       : 26
  378. Format                                   : PGS
  379. Muxing mode                              : zlib
  380. Codec ID                                 : S_HDMV/PGS
  381. Codec ID/Info                            : Picture based subtitle format used on BDs/HD-DVDs
  382. Duration                                 : 2 h 21 min
  383. Bit rate                                 : 31.3 kb/s
  384. Count of elements                        : 3764
  385. Stream size                              : 31.6 MiB (0%)
  386. Title                                    : Polish-PGS
  387. Language                                 : Polish
  388. Default                                  : No
  389. Forced                                   : No

  390. Text #23
  391. ID                                       : 27
  392. Format                                   : PGS
  393. Muxing mode                              : zlib
  394. Codec ID                                 : S_HDMV/PGS
  395. Codec ID/Info                            : Picture based subtitle format used on BDs/HD-DVDs
  396. Duration                                 : 2 h 21 min
  397. Bit rate                                 : 31.0 kb/s
  398. Count of elements                        : 3738
  399. Stream size                              : 31.3 MiB (0%)
  400. Title                                    : Portuguese-PGS
  401. Language                                 : Portuguese
  402. Default                                  : No
  403. Forced                                   : No

  404. Text #24
  405. ID                                       : 28
  406. Format                                   : PGS
  407. Muxing mode                              : zlib
  408. Codec ID                                 : S_HDMV/PGS
  409. Codec ID/Info                            : Picture based subtitle format used on BDs/HD-DVDs
  410. Duration                                 : 2 h 26 min
  411. Bit rate                                 : 38.2 kb/s
  412. Count of elements                        : 3792
  413. Stream size                              : 39.9 MiB (0%)
  414. Title                                    : Portuguese-PGS
  415. Language                                 : Portuguese
  416. Default                                  : No
  417. Forced                                   : No

  418. Text #25
  419. ID                                       : 29
  420. Format                                   : PGS
  421. Muxing mode                              : zlib
  422. Codec ID                                 : S_HDMV/PGS
  423. Codec ID/Info                            : Picture based subtitle format used on BDs/HD-DVDs
  424. Duration                                 : 2 h 21 min
  425. Bit rate                                 : 31.0 kb/s
  426. Count of elements                        : 3554
  427. Stream size                              : 31.3 MiB (0%)
  428. Title                                    : Romanian-PGS
  429. Language                                 : Romanian
  430. Default                                  : No
  431. Forced                                   : No

  432. Text #26
  433. ID                                       : 30
  434. Format                                   : PGS
  435. Muxing mode                              : zlib
  436. Codec ID                                 : S_HDMV/PGS
  437. Codec ID/Info                            : Picture based subtitle format used on BDs/HD-DVDs
  438. Duration                                 : 2 h 21 min
  439. Bit rate                                 : 41.9 kb/s
  440. Count of elements                        : 3964
  441. Stream size                              : 42.3 MiB (0%)
  442. Title                                    : Russian-PGS
  443. Language                                 : Russian
  444. Default                                  : No
  445. Forced                                   : No

  446. Text #27
  447. ID                                       : 31
  448. Format                                   : PGS
  449. Muxing mode                              : zlib
  450. Codec ID                                 : S_HDMV/PGS
  451. Codec ID/Info                            : Picture based subtitle format used on BDs/HD-DVDs
  452. Duration                                 : 2 h 21 min
  453. Bit rate                                 : 34.3 kb/s
  454. Count of elements                        : 3952
  455. Stream size                              : 34.6 MiB (0%)
  456. Title                                    : Spanish-PGS
  457. Language                                 : Spanish
  458. Default                                  : No
  459. Forced                                   : No

  460. Text #28
  461. ID                                       : 32
  462. Format                                   : PGS
  463. Muxing mode                              : zlib
  464. Codec ID                                 : S_HDMV/PGS
  465. Codec ID/Info                            : Picture based subtitle format used on BDs/HD-DVDs
  466. Duration                                 : 2 h 21 min
  467. Bit rate                                 : 37.3 kb/s
  468. Count of elements                        : 3904
  469. Stream size                              : 37.6 MiB (0%)
  470. Title                                    : Spanish-PGS
  471. Language                                 : Spanish
  472. Default                                  : No
  473. Forced                                   : No

  474. Text #29
  475. ID                                       : 33
  476. Format                                   : PGS
  477. Muxing mode                              : zlib
  478. Codec ID                                 : S_HDMV/PGS
  479. Codec ID/Info                            : Picture based subtitle format used on BDs/HD-DVDs
  480. Duration                                 : 2 h 25 min
  481. Bit rate                                 : 29.1 kb/s
  482. Count of elements                        : 3391
  483. Stream size                              : 30.3 MiB (0%)
  484. Title                                    : Swedish-PGS
  485. Language                                 : Swedish
  486. Default                                  : No
  487. Forced                                   : No

  488. Text #30
  489. ID                                       : 34
  490. Format                                   : PGS
  491. Muxing mode                              : zlib
  492. Codec ID                                 : S_HDMV/PGS
  493. Codec ID/Info                            : Picture based subtitle format used on BDs/HD-DVDs
  494. Duration                                 : 2 h 21 min
  495. Bit rate                                 : 34.0 kb/s
  496. Count of elements                        : 3874
  497. Stream size                              : 34.3 MiB (0%)
  498. Title                                    : Thai-PGS
  499. Language                                 : Thai
  500. Default                                  : No
  501. Forced                                   : No

  502. Text #31
  503. ID                                       : 35
  504. Format                                   : PGS
  505. Muxing mode                              : zlib
  506. Codec ID                                 : S_HDMV/PGS
  507. Codec ID/Info                            : Picture based subtitle format used on BDs/HD-DVDs
  508. Duration                                 : 2 h 21 min
  509. Bit rate                                 : 38.0 kb/s
  510. Count of elements                        : 3868
  511. Stream size                              : 38.4 MiB (0%)
  512. Title                                    : Turkish-PGS
  513. Language                                 : Turkish
  514. Default                                  : No
  515. Forced                                   : No

  516. Text #32
  517. ID                                       : 36
  518. Format                                   : PGS
  519. Muxing mode                              : zlib
  520. Codec ID                                 : S_HDMV/PGS
  521. Codec ID/Info                            : Picture based subtitle format used on BDs/HD-DVDs
  522. Duration                                 : 57 min 30 s
  523. Bit rate                                 : 239 b/s
  524. Count of elements                        : 14
  525. Stream size                              : 101 KiB (0%)
  526. Title                                    : French-FORCED-PGS
  527. Language                                 : French
  528. Default                                  : No
  529. Forced                                   : No

  530. Text #33
  531. ID                                       : 37
  532. Format                                   : PGS
  533. Muxing mode                              : zlib
  534. Codec ID                                 : S_HDMV/PGS
  535. Codec ID/Info                            : Picture based subtitle format used on BDs/HD-DVDs
  536. Duration                                 : 1 h 34 min
  537. Bit rate                                 : 288 b/s
  538. Count of elements                        : 26
  539. Stream size                              : 200 KiB (0%)
  540. Title                                    : Japanese-FORCED-PGS
  541. Language                                 : Japanese
  542. Default                                  : No
  543. Forced                                   : No

  544. Menu
  545. 00:00:00.000                             : :Chapter 1
  546. 00:11:05.498                             : :Chapter 2
  547. 00:21:55.397                             : :Chapter 3
  548. 00:39:55.768                             : :Chapter 4
  549. 00:45:28.684                             : :Chapter 5
  550. 00:53:28.788                             : :Chapter 6
  551. 00:59:02.247                             : :Chapter 7
  552. 01:06:27.066                             : :Chapter 8
  553. 01:11:29.618                             : :Chapter 9
  554. 01:17:54.169                             : :Chapter 10
  555. 01:30:28.131                             : :Chapter 11
  556. 01:37:39.228                             : :Chapter 12
  557. 01:45:54.765                             : :Chapter 13
  558. 01:56:47.625                             : :Chapter 14
  559. 02:05:08.584                             : :Chapter 15
  560. 02:16:07.701                             : :Chapter 16
复制代码

复制代码

绝地战警2/重案梦幻组2 Bad.Boys.II.2003.2160p.BluRay.x265.10bit.SDR.DTS-HD.MA.TrueHD.7.1.Atmos-SWTYBLZ 57.09GB-2.png 绝地战警2/重案梦幻组2 Bad.Boys.II.2003.2160p.BluRay.x265.10bit.SDR.DTS-HD.MA.TrueHD.7.1.Atmos-SWTYBLZ 57.09GB-3.png 绝地战警2/重案梦幻组2 Bad.Boys.II.2003.2160p.BluRay.x265.10bit.SDR.DTS-HD.MA.TrueHD.7.1.Atmos-SWTYBLZ 57.09GB-4.png 绝地战警2/重案梦幻组2 Bad.Boys.II.2003.2160p.BluRay.x265.10bit.SDR.DTS-HD.MA.TrueHD.7.1.Atmos-SWTYBLZ 57.09GB-5.png 绝地战警2/重案梦幻组2 Bad.Boys.II.2003.2160p.BluRay.x265.10bit.SDR.DTS-HD.MA.TrueHD.7.1.Atmos-SWTYBLZ 57.09GB-6.png 绝地战警2/重案梦幻组2 Bad.Boys.II.2003.2160p.BluRay.x265.10bit.SDR.DTS-HD.MA.TrueHD.7.1.Atmos-SWTYBLZ 57.09GB-7.png 绝地战警2/重案梦幻组2 Bad.Boys.II.2003.2160p.BluRay.x265.10bit.SDR.DTS-HD.MA.TrueHD.7.1.Atmos-SWTYBLZ 57.09GB-8.png






回复

使用道具 举报

懒得打字嘛,点击右侧快捷回复 【右侧内容,后台自定义】
您需要登录后才可以回帖 登录 | 立即加入

本版积分规则

Archiver|小黑屋| 蓝光电影网 |网站地图

Copyright © 2021 Comsenz Inc. Powered by 蓝光电影网

蓝光电影网

本站内容由用户自主分享和转载自互联网,转载目的在于传递更多信息,并不代表本网赞同其观点和对其真实性负责。

如有侵权、违反国家法律政策行为,请联系我们,我们会第一时间及时清除和处理!

举报反馈邮箱:[email protected]

快速回复 返回顶部 返回列表