找回密码

蓝光电影网

查看: 6945|回复: 8

[REMUX.HEVC] 侏罗纪世界2/侏罗纪世界:殒落国度 Jurassic.World.Fallen.Kingdom.2018.2160p.BluRay.REMUX.HEVC.DTS-X.7.1-FGT 51.78GB

  [复制链接]
蓝光币
323
发表于 2018-9-10 10:27:01 | 显示全部楼层
激动人心,无法言表!
回复 支持 反对

使用道具 举报

蓝光币
189
发表于 2018-9-10 19:36:36 | 显示全部楼层
强烈支持楼主ing……
回复 支持 反对

使用道具 举报

蓝光币
189
发表于 2018-9-11 10:43:04 | 显示全部楼层
强烈支持楼主ing……
回复 支持 反对

使用道具 举报

蓝光币
198
发表于 2018-9-11 14:14:32 | 显示全部楼层
真是难得给力的帖子啊。
回复 支持 反对

使用道具 举报

蓝光币
189
发表于 2018-9-14 08:35:46 | 显示全部楼层
强烈支持楼主ing……
回复 支持 反对

使用道具 举报

蓝光币
189
发表于 2018-9-18 12:15:38 | 显示全部楼层
强烈支持楼主ing……
回复 支持 反对

使用道具 举报

蓝光币
323
发表于 2018-9-20 08:19:52 | 显示全部楼层
真是难得给力的帖子啊。
回复 支持 反对

使用道具 举报

蓝光币
623
发表于 2018-9-20 16:27:00 | 显示全部楼层 |阅读模式
侏罗纪天下2/侏罗纪天下:殒落国家 Jurassic.World.Fallen.Kingdom.2018.2160p.BluRay.REMUX.HEVC.DTS-X.7.1-FGT 51.78GB-1.jpg
◎译  名 侏罗纪天下2/侏罗纪天下:殒落国家(台)/侏罗纪天下:丢失国家(港)/侏罗纪天下2:失落王国/侏罗纪天下2:出错王国/侏罗纪公园5
◎片  名 Jurassic World: Fallen Kingdom
◎年  代 2018
◎产  地 美国/西班牙
◎类  别 行动/科幻/冒险
◎语  言 英语
◎上映日期 2018-06-15(中国大陆)/2018-06-22(美国)
◎豆瓣评分 6.8/10 from 189,522 users
◎豆瓣链接 https://movie.douban.com/subject/26416062/
◎片  长 128分钟
◎导  演 胡安·安东尼奥·巴亚纳 Juan Antonio Bayona
◎主  演 克里斯·帕拉特 Chris Pratt
      布莱丝·达拉斯·霍华德 Bryce Dallas Howard
      贾斯蒂斯·史姑娘 Justice Smith
      伊莎贝拉·瑟蒙 1394999
      拉菲·斯波 Rafe Spall
      托比·琼斯 Toby Jones
      泰德·拉文 Ted Levine
      詹姆斯·克伦威尔 James Cromwell
      黄荣亮 B.D. Wong
      丹妮艾拉·皮内达 Daniella Pineda
      杰拉丁·卓别林 Geraldine Chaplin
      杰夫·高布伦 Jeff Goldblum
      卡米尔·雷米泽斯基 Kamil Lemieszewski
      丹尼尔·斯蒂森 Daniel Stisen
      皮特·杰森 Peter Jason
      迈克尔·帕帕约翰 Michael Papajohn
      罗伯特·埃姆斯 Robert Emms
      罗南·萨莫尔斯 Ronan Summers
      麦克斯·贝克 Max Baker
      丹尼尔·厄根 Daniel Eghan
      戴维·奥拉瓦莱·阿印德 David Olawale Ayinde

◎简  介

  自侏罗纪天下的骚乱以来,品种繁多的恐龙在努布拉岛度过了三年自在自在的时光。但是该岛火山活动频仍,随时有喷发的危险。努力于恐龙庇护的克莱尔·戴宁(布莱丝·达拉斯·霍华德 Bryce Dallas Howard 饰)遭到班杰明?洛克伍德的约请。班杰明及其部属伊莱·米尔斯(拉菲·斯波 Rafe Spall 饰)希望她和相关技术职员前往努布拉岛拯救那边的恐龙,并将它们安置在新的栖息地。遭到传染的克莱尔想法找来欧文(克里斯·帕拉特 Chris Pratt 饰)一同前往,欧文则希望救出他亲手驯养的迅猛龙小蓝。当他们踏足这座隔断之岛时,却发现工作没那末简单。
  火山捋臂张拳,随时爆发,而紊乱当中丑陋的诡计悄悄酝酿……

  1. Video #1
  2. ID                                       : 1
  3. Format                                   : HEVC
  4. Format/Info                              : High Efficiency Video Coding
  5. Commercial name                          : HDR10
  6. Format profile                           : Main [url=/cdn-cgi/l/email-protection][email protected][/url]@High
  7. Codec ID                                 : V_MPEGH/ISO/HEVC
  8. Duration                                 : 2 h 8 min
  9. Bit rate                                 : 44.3 Mb/s
  10. Width                                    : 3 840 pixels
  11. Height                                   : 2 160 pixels
  12. Display aspect ratio                     : 16:9
  13. Frame rate mode                          : Constant
  14. Frame rate                               : 23.976 (24000/1001) FPS
  15. Color space                              : YUV
  16. Chroma subsampling                       : 4:2:0 (Type 2)
  17. Bit depth                                : 10 bits
  18. Bits/(Pixel*Frame)                       : 0.223
  19. Stream size                              : 39.7 GiB (77%)
  20. Title                                    : Jurassic.World.Fallen.Kingdom.2018.2160p.BluRay.REMUX.HEVC.DTS-X.7.1-FGT
  21. Default                                  : Yes
  22. Forced                                   : No
  23. Color range                              : Limited
  24. Color primaries                          : BT.2020
  25. Transfer characteristics                 : PQ
  26. Matrix coefficients                      : BT.2020 non-constant
  27. Mastering display color primaries        : Display P3
  28. Mastering display luminance              : min: 0.0001 cd/m2, max: 1000 cd/m2
  29. Maximum Content Light Level              : 1000 cd/m2
  30. Maximum Frame-Average Light Level        : 153 cd/m2

  31. Video #2
  32. ID                                       : 2
  33. Format                                   : HEVC
  34. Format/Info                              : High Efficiency Video Coding
  35. Commercial name                          : HDR10
  36. Format profile                           : Main [url=/cdn-cgi/l/email-protection][email protected][/url]@High
  37. Codec ID                                 : V_MPEGH/ISO/HEVC
  38. Duration                                 : 2 h 8 min
  39. Bit rate                                 : 5 162 kb/s
  40. Width                                    : 1 920 pixels
  41. Height                                   : 1 080 pixels
  42. Display aspect ratio                     : 16:9
  43. Frame rate mode                          : Constant
  44. Frame rate                               : 23.976 (24000/1001) FPS
  45. Color space                              : YUV
  46. Chroma subsampling                       : 4:2:0 (Type 2)
  47. Bit depth                                : 10 bits
  48. Bits/(Pixel*Frame)                       : 0.104
  49. Stream size                              : 4.63 GiB (9%)
  50. Title                                    : Jurassic.World.Fallen.Kingdom.2018.2160p.BluRay.REMUX.HEVC.DTS-X.7.1-FGT
  51. Default                                  : No
  52. Forced                                   : No
  53. Color range                              : Limited
  54. Color primaries                          : BT.2020
  55. Transfer characteristics                 : PQ
  56. Matrix coefficients                      : BT.2020 non-constant
  57. Mastering display color primaries        : Display P3
  58. Mastering display luminance              : min: 0.0001 cd/m2, max: 1000 cd/m2

  59. Audio #1
  60. ID                                       : 3
  61. Format                                   : DTS
  62. Format/Info                              : Digital Theater Systems
  63. Format profile                           : X / MA / Core
  64. Codec ID                                 : A_DTS
  65. Duration                                 : 2 h 8 min
  66. Bit rate mode                            : Variable / Variable / Constant
  67. Bit rate                                 : 4 231 kb/s / 4 231 kb/s / 1 509 kb/s
  68. Channel(s)                               : Object Based / 8 channels / 6 channels
  69. Channel positions                        : Object Based / Front: L C R, Side: L R, Back: L R, LFE / Front: L C R, Side: L R, LFE
  70. Sampling rate                            :  / 48.0 kHz / 48.0 kHz
  71. Frame rate                               : 93.750 FPS (512 SPF)
  72. Bit depth                                :  / 24 bits / 24 bits
  73. Compression mode                         :  / Lossless / Lossy
  74. Stream size                              : 3.79 GiB (7%)
  75. Title                                    : Jurassic.World.Fallen.Kingdom.2018.2160p.BluRay.REMUX.HEVC.DTS-X.7.1-FGT
  76. Language                                 : English
  77. Default                                  : Yes
  78. Forced                                   : No

  79. Audio #2
  80. ID                                       : 4
  81. Format                                   : DTS
  82. Format/Info                              : Digital Theater Systems
  83. Format profile                           : HRA / Core
  84. Codec ID                                 : A_DTS
  85. Duration                                 : 2 h 8 min
  86. Bit rate mode                            : Constant
  87. Bit rate                                 : 2 046 kb/s / 1 509 kb/s
  88. Channel(s)                               : 8 channels / 6 channels
  89. Channel positions                        : Front: L C R, Side: L R, Back: L R, LFE / Front: L C R, Side: L R, LFE
  90. Sampling rate                            : 48.0 kHz
  91. Frame rate                               : 93.750 FPS (512 SPF)
  92. Bit depth                                : 24 bits
  93. Compression mode                         : Lossy
  94. Stream size                              : 1.83 GiB (4%)
  95. Title                                    : Jurassic.World.Fallen.Kingdom.2018.2160p.BluRay.REMUX.HEVC.DTS-X.7.1-FGT
  96. Language                                 : Spanish
  97. Default                                  : No
  98. Forced                                   : No

  99. Audio #3
  100. ID                                       : 5
  101. Format                                   : DTS
  102. Format/Info                              : Digital Theater Systems
  103. Format profile                           : HRA / Core
  104. Codec ID                                 : A_DTS
  105. Duration                                 : 2 h 8 min
  106. Bit rate mode                            : Constant
  107. Bit rate                                 : 2 046 kb/s / 1 509 kb/s
  108. Channel(s)                               : 8 channels / 6 channels
  109. Channel positions                        : Front: L C R, Side: L R, Back: L R, LFE / Front: L C R, Side: L R, LFE
  110. Sampling rate                            : 48.0 kHz
  111. Frame rate                               : 93.750 FPS (512 SPF)
  112. Bit depth                                : 24 bits
  113. Compression mode                         : Lossy
  114. Stream size                              : 1.83 GiB (4%)
  115. Title                                    : Jurassic.World.Fallen.Kingdom.2018.2160p.BluRay.REMUX.HEVC.DTS-X.7.1-FGT
  116. Language                                 : French
  117. Default                                  : No
  118. Forced                                   : No

  119. Text #1
  120. ID                                       : 6
  121. Format                                   : PGS
  122. Muxing mode                              : zlib
  123. Codec ID                                 : S_HDMV/PGS
  124. Codec ID/Info                            : Picture based subtitle format used on BDs/HD-DVDs
  125. Duration                                 : 2 h 7 min
  126. Bit rate                                 : 34.7 kb/s
  127. Count of elements                        : 3540
  128. Stream size                              : 31.5 MiB (0%)
  129. Title                                    : Engish-PGS
  130. Language                                 : English
  131. Default                                  : Yes
  132. Forced                                   : No

  133. Text #2
  134. ID                                       : 7
  135. Format                                   : PGS
  136. Muxing mode                              : zlib
  137. Codec ID                                 : S_HDMV/PGS
  138. Codec ID/Info                            : Picture based subtitle format used on BDs/HD-DVDs
  139. Duration                                 : 2 h 6 min
  140. Bit rate                                 : 25.1 kb/s
  141. Count of elements                        : 2590
  142. Stream size                              : 22.7 MiB (0%)
  143. Title                                    : Spanish-PGS
  144. Language                                 : Spanish
  145. Default                                  : No
  146. Forced                                   : No

  147. Text #3
  148. ID                                       : 8
  149. Format                                   : PGS
  150. Muxing mode                              : zlib
  151. Codec ID                                 : S_HDMV/PGS
  152. Codec ID/Info                            : Picture based subtitle format used on BDs/HD-DVDs
  153. Duration                                 : 2 h 6 min
  154. Bit rate                                 : 23.6 kb/s
  155. Count of elements                        : 2592
  156. Stream size                              : 21.4 MiB (0%)
  157. Title                                    : French-PGS
  158. Language                                 : French
  159. Default                                  : No
  160. Forced                                   : No

  161. Text #4
  162. ID                                       : 9
  163. Format                                   : PGS
  164. Muxing mode                              : zlib
  165. Codec ID                                 : S_HDMV/PGS
  166. Codec ID/Info                            : Picture based subtitle format used on BDs/HD-DVDs
  167. Duration                                 : 2 h 6 min
  168. Bit rate                                 : 191 b/s
  169. Count of elements                        : 20
  170. Stream size                              : 178 KiB (0%)
  171. Title                                    : Spanish-FORCED-PGS
  172. Language                                 : Spanish
  173. Default                                  : No
  174. Forced                                   : No

  175. Text #5
  176. ID                                       : 10
  177. Format                                   : PGS
  178. Muxing mode                              : zlib
  179. Codec ID                                 : S_HDMV/PGS
  180. Codec ID/Info                            : Picture based subtitle format used on BDs/HD-DVDs
  181. Duration                                 : 2 h 6 min
  182. Bit rate                                 : 639 b/s
  183. Count of elements                        : 60
  184. Stream size                              : 593 KiB (0%)
  185. Title                                    : French-FORCED-PGS
  186. Language                                 : French
  187. Default                                  : No
  188. Forced                                   : No

  189. Menu
  190. 00:00:00.000                             : :Chapter 1
  191. 00:07:13.224                             : :Chapter 2
  192. 00:12:01.554                             : :Chapter 3
  193. 00:17:17.745                             : :Chapter 4
  194. 00:21:17.192                             : :Chapter 5
  195. 00:28:49.811                             : :Chapter 6
  196. 00:35:04.685                             : :Chapter 7
  197. 00:40:51.574                             : :Chapter 8
  198. 00:46:32.498                             : :Chapter 9
  199. 00:52:04.996                             : :Chapter 10
  200. 01:00:59.197                             : :Chapter 11
  201. 01:06:50.256                             : :Chapter 12
  202. 01:11:07.638                             : :Chapter 13
  203. 01:17:21.094                             : :Chapter 14
  204. 01:26:55.210                             : :Chapter 15
  205. 01:33:01.492                             : :Chapter 16
  206. 01:42:55.878                             : :Chapter 17
  207. 01:50:01.553                             : :Chapter 18
  208. 01:54:56.222                             : :Chapter 19
  209. 01:58:37.985                             : :Chapter 20
复制代码

复制代码

侏罗纪天下2/侏罗纪天下:殒落国家 Jurassic.World.Fallen.Kingdom.2018.2160p.BluRay.REMUX.HEVC.DTS-X.7.1-FGT 51.78GB-2.png 侏罗纪天下2/侏罗纪天下:殒落国家 Jurassic.World.Fallen.Kingdom.2018.2160p.BluRay.REMUX.HEVC.DTS-X.7.1-FGT 51.78GB-3.png 侏罗纪天下2/侏罗纪天下:殒落国家 Jurassic.World.Fallen.Kingdom.2018.2160p.BluRay.REMUX.HEVC.DTS-X.7.1-FGT 51.78GB-4.png




回复

使用道具 举报

蓝光币
56
发表于 2018-11-15 13:11:24 | 显示全部楼层
感谢楼主分享
回复 支持 反对

使用道具 举报

懒得打字嘛,点击右侧快捷回复 【右侧内容,后台自定义】
您需要登录后才可以回帖 登录 | 立即加入

本版积分规则

Archiver|小黑屋| 蓝光电影网 |网站地图

Copyright © 2021 Comsenz Inc. Powered by 蓝光电影网

蓝光电影网

本站内容由用户自主分享和转载自互联网,转载目的在于传递更多信息,并不代表本网赞同其观点和对其真实性负责。

如有侵权、违反国家法律政策行为,请联系我们,我们会第一时间及时清除和处理!

举报反馈邮箱:[email protected]

快速回复 返回顶部 返回列表