找回密码

蓝光电影网

查看: 6265|回复: 8

[10bit.SDR] 侏罗纪世界2/侏罗纪世界:殒落国度 Jurassic.World.Fallen.Kingdom.2018.2160p.BluRay.x265.10bit.SDR.DTS-X.7.1-SWTYBLZ 17.88GB

  [复制链接]
蓝光币
34
发表于 2018-9-10 19:03:11 | 显示全部楼层
激动人心,无法言表!
回复 支持 反对

使用道具 举报

蓝光币
623
发表于 2018-9-14 15:15:00 | 显示全部楼层 |阅读模式
侏罗纪天下2/侏罗纪天下:殒落国家 Jurassic.World.Fallen.Kingdom.2018.2160p.BluRay.x265.10bit.SDR.DTS-X.7.1-SWTYBLZ 17.88GB-1.jpg
◎译  名 侏罗纪天下2/侏罗纪天下:殒落国家(台)/侏罗纪天下:丢失国家(港)/侏罗纪天下2:失落王国/侏罗纪天下2:出错王国/侏罗纪公园5
◎片  名 Jurassic World: Fallen Kingdom
◎年  代 2018
◎产  地 美国/西班牙
◎类  别 行动/科幻/冒险
◎语  言 英语
◎上映日期 2018-06-15(中国大陆)/2018-06-22(美国)
◎豆瓣评分 6.8/10 from 189,789 users
◎豆瓣链接 https://movie.douban.com/subject/26416062/
◎片  长 128分钟
◎导  演 胡安·安东尼奥·巴亚纳 Juan Antonio Bayona
◎主  演 克里斯·帕拉特 Chris Pratt
      布莱丝·达拉斯·霍华德 Bryce Dallas Howard
      贾斯蒂斯·史姑娘 Justice Smith
      伊莎贝拉·瑟蒙 1394999
      拉菲·斯波 Rafe Spall
      托比·琼斯 Toby Jones
      泰德·拉文 Ted Levine
      詹姆斯·克伦威尔 James Cromwell
      黄荣亮 B.D. Wong
      丹妮艾拉·皮内达 Daniella Pineda
      杰拉丁·卓别林 Geraldine Chaplin
      杰夫·高布伦 Jeff Goldblum
      卡米尔·雷米泽斯基 Kamil Lemieszewski
      丹尼尔·斯蒂森 Daniel Stisen
      皮特·杰森 Peter Jason
      迈克尔·帕帕约翰 Michael Papajohn
      罗伯特·埃姆斯 Robert Emms
      罗南·萨莫尔斯 Ronan Summers
      麦克斯·贝克 Max Baker
      丹尼尔·厄根 Daniel Eghan
      戴维·奥拉瓦莱·阿印德 David Olawale Ayinde

◎简  介

  自侏罗纪天下的骚乱以来,品种繁多的恐龙在努布拉岛度过了三年自在自在的时光。但是该岛火山活动频仍,随时有喷发的危险。努力于恐龙庇护的克莱尔·戴宁(布莱丝·达拉斯·霍华德 Bryce Dallas Howard 饰)遭到班杰明?洛克伍德的约请。班杰明及其部属伊莱·米尔斯(拉菲·斯波 Rafe Spall 饰)希望她和相关技术职员前往努布拉岛拯救那边的恐龙,并将它们安置在新的栖息地。遭到传染的克莱尔想法找来欧文(克里斯·帕拉特 Chris Pratt 饰)一同前往,欧文则希望救出他亲手驯养的迅猛龙小蓝。当他们踏足这座隔断之岛时,却发现工作没那末简单。
  火山捋臂张拳,随时爆发,而紊乱当中丑陋的诡计悄悄酝酿……

  1. Video
  2. ID                                       : 1
  3. Format                                   : HEVC
  4. Format/Info                              : High Efficiency Video Coding
  5. Format profile                           : Main [url=/cdn-cgi/l/email-protection][email protected][/url]@High
  6. Codec ID                                 : V_MPEGH/ISO/HEVC
  7. Duration                                 : 2 h 8 min
  8. Bit rate                                 : 15.0 Mb/s
  9. Width                                    : 3 840 pixels
  10. Height                                   : 1 606 pixels
  11. Display aspect ratio                     : 2.40:1
  12. Frame rate mode                          : Constant
  13. Frame rate                               : 23.976 (24000/1001) FPS
  14. Color space                              : YUV
  15. Chroma subsampling                       : 4:2:0
  16. Bit depth                                : 10 bits
  17. Bits/(Pixel*Frame)                       : 0.101
  18. Stream size                              : 13.4 GiB (75%)
  19. Title                                    : Jurassic.World.Fallen.Kingdom.2018.2160p.BluRay.x265.10bit.SDR.DTS-X.7.1-SWTYBLZ
  20. Writing library                          : x265 2.8+54-79c76e42cb28:[Windows][GCC 7.3.1][64 bit] 10bit
  21. Encoding settings                        : cpuid=1111039 / frame-threads=16 / numa-pools=24,24,24,24 / wpp / no-pmode / no-pme / no-psnr / no-ssim / log-level=2 / input-csp=1 / input-res=3840x1606 / interlace=0 / total-frames=0 / level-idc=51 / high-tier=1 / uhd-bd=0 / ref=3 / no-allow-non-conformance / repeat-headers / annexb / aud / hrd / info / hash=0 / no-temporal-layers / no-open-gop / min-keyint=1 / keyint=24 / gop-lookahead=0 / bframes=4 / b-adapt=2 / b-pyramid / bframe-bias=0 / rc-lookahead=25 / lookahead-slices=4 / scenecut=40 / radl=0 / no-intra-refresh / ctu=64 / min-cu-size=8 / no-rect / no-amp / max-tu-size=32 / tu-inter-depth=1 / tu-intra-depth=1 / limit-tu=0 / rdoq-level=0 / dynamic-rd=0.00 / no-ssim-rd / signhide / no-tskip / nr-intra=0 / nr-inter=0 / no-constrained-intra / strong-intra-smoothing / max-merge=2 / limit-refs=3 / no-limit-modes / me=1 / subme=2 / merange=57 / temporal-mvp / weightp / no-weightb / no-analyze-src-pics / deblock=0:0 / no-sao / no-sao-non-deblock / rd=3 / no-early-skip / rskip / no-fast-intra / no-tskip-fast / no-cu-lossless / no-b-intra / no-splitrd-skip / rdpenalty=0 / psy-rd=2.00 / psy-rdoq=0.00 / no-rd-refine / no-lossless / cbqpoffs=0 / crqpoffs=0 / rc=crf / crf=16.0 / qcomp=0.60 / qpstep=4 / stats-write=0 / stats-read=0 / vbv-maxrate=160000 / vbv-bufsize=160000 / vbv-init=0.9 / crf-max=0.0 / crf-min=0.0 / ipratio=1.40 / pbratio=1.30 / aq-mode=1 / aq-strength=1.00 / cutree / zone-count=0 / no-strict-cbr / qg-size=32 / no-rc-grain / qpmax=69 / qpmin=0 / no-const-vbv / sar=1 / overscan=0 / videoformat=5 / range=0 / colorprim=2 / transfer=2 / colormatrix=2 / chromaloc=0 / display-window=0 / max-cll=0,0 / min-luma=0 / max-luma=1023 / log2-max-poc-lsb=8 / vui-timing-info / vui-hrd-info / slices=1 / opt-qp-pps / opt-ref-list-length-pps / no-multi-pass-opt-rps / scenecut-bias=0.05 / no-opt-cu-delta-qp / no-aq-motion / no-hdr / no-hdr-opt / no-dhdr10-opt / no-idr-recovery-sei / analysis-reuse-level=5 / scale-factor=0 / refine-intra=0 / refine-inter=0 / refine-mv=0 / no-limit-sao / ctu-info=0 / no-lowpass-dct / refine-mv-type=0 / copy-pic=1 / max-ausize-factor=1.0 / no-dynamic-refine / no-single-sei
  22. Default                                  : Yes
  23. Forced                                   : No

  24. Audio #1
  25. ID                                       : 2
  26. Format                                   : DTS
  27. Format/Info                              : Digital Theater Systems
  28. Format profile                           : X / MA / Core
  29. Codec ID                                 : A_DTS
  30. Duration                                 : 2 h 8 min
  31. Bit rate mode                            : Variable / Variable / Constant
  32. Bit rate                                 : 4 231 kb/s / 4 231 kb/s / 1 509 kb/s
  33. Channel(s)                               : Object Based / 8 channels / 6 channels
  34. Channel positions                        : Object Based / Front: L C R, Side: L R, Back: L R, LFE / Front: L C R, Side: L R, LFE
  35. Sampling rate                            :  / 48.0 kHz / 48.0 kHz
  36. Frame rate                               : 93.750 FPS (512 SPF)
  37. Bit depth                                :  / 24 bits / 24 bits
  38. Compression mode                         :  / Lossless / Lossy
  39. Stream size                              : 3.79 GiB (21%)
  40. Title                                    : Jurassic.World.Fallen.Kingdom.2018.2160p.BluRay.x265.10bit.SDR.DTS-X.7.1-SWTYBLZ
  41. Language                                 : English
  42. Default                                  : Yes
  43. Forced                                   : No

  44. Audio #2
  45. ID                                       : 3
  46. Format                                   : AC-3
  47. Format/Info                              : Audio Coding 3
  48. Codec ID                                 : A_AC3
  49. Duration                                 : 2 h 8 min
  50. Bit rate mode                            : Constant
  51. Bit rate                                 : 640 kb/s
  52. Channel(s)                               : 6 channels
  53. Channel positions                        : Front: L C R, Side: L R, LFE
  54. Sampling rate                            : 48.0 kHz
  55. Frame rate                               : 31.250 FPS (1536 SPF)
  56. Bit depth                                : 16 bits
  57. Compression mode                         : Lossy
  58. Stream size                              : 587 MiB (3%)
  59. Title                                    : Jurassic.World.Fallen.Kingdom.2018.2160p.BluRay.x265.10bit.SDR.DTS-X.7.1-SWTYBLZ
  60. Language                                 : English
  61. Service kind                             : Complete Main
  62. Default                                  : No
  63. Forced                                   : No

  64. Text #1
  65. ID                                       : 4
  66. Format                                   : UTF-8
  67. Codec ID                                 : S_TEXT/UTF8
  68. Codec ID/Info                            : UTF-8 Plain Text
  69. Duration                                 : 1 h 55 min
  70. Bit rate                                 : 43 b/s
  71. Count of elements                        : 1379
  72. Stream size                              : 37.2 KiB (0%)
  73. Title                                    : English-SRT
  74. Language                                 : English
  75. Default                                  : Yes
  76. Forced                                   : No

  77. Text #2
  78. ID                                       : 5
  79. Format                                   : PGS
  80. Muxing mode                              : zlib
  81. Codec ID                                 : S_HDMV/PGS
  82. Codec ID/Info                            : Picture based subtitle format used on BDs/HD-DVDs
  83. Duration                                 : 2 h 7 min
  84. Bit rate                                 : 34.7 kb/s
  85. Count of elements                        : 3540
  86. Stream size                              : 31.5 MiB (0%)
  87. Title                                    : Engish-PGS
  88. Language                                 : English
  89. Default                                  : No
  90. Forced                                   : No

  91. Text #3
  92. ID                                       : 6
  93. Format                                   : PGS
  94. Muxing mode                              : zlib
  95. Codec ID                                 : S_HDMV/PGS
  96. Codec ID/Info                            : Picture based subtitle format used on BDs/HD-DVDs
  97. Duration                                 : 2 h 6 min
  98. Bit rate                                 : 25.1 kb/s
  99. Count of elements                        : 2590
  100. Stream size                              : 22.7 MiB (0%)
  101. Title                                    : Spanish-PGS
  102. Language                                 : Spanish
  103. Default                                  : No
  104. Forced                                   : No

  105. Text #4
  106. ID                                       : 7
  107. Format                                   : PGS
  108. Muxing mode                              : zlib
  109. Codec ID                                 : S_HDMV/PGS
  110. Codec ID/Info                            : Picture based subtitle format used on BDs/HD-DVDs
  111. Duration                                 : 2 h 6 min
  112. Bit rate                                 : 23.6 kb/s
  113. Count of elements                        : 2592
  114. Stream size                              : 21.4 MiB (0%)
  115. Title                                    : French-PGS
  116. Language                                 : French
  117. Default                                  : No
  118. Forced                                   : No

  119. Menu
  120. 00:00:00.000                             : :Chapter 1
  121. 00:07:13.224                             : :Chapter 2
  122. 00:12:01.554                             : :Chapter 3
  123. 00:17:17.745                             : :Chapter 4
  124. 00:21:17.192                             : :Chapter 5
  125. 00:28:49.811                             : :Chapter 6
  126. 00:35:04.685                             : :Chapter 7
  127. 00:40:51.574                             : :Chapter 8
  128. 00:46:32.498                             : :Chapter 9
  129. 00:52:04.996                             : :Chapter 10
  130. 01:00:59.197                             : :Chapter 11
  131. 01:06:50.256                             : :Chapter 12
  132. 01:11:07.638                             : :Chapter 13
  133. 01:17:21.094                             : :Chapter 14
  134. 01:26:55.210                             : :Chapter 15
  135. 01:33:01.492                             : :Chapter 16
  136. 01:42:55.878                             : :Chapter 17
  137. 01:50:01.553                             : :Chapter 18
  138. 01:54:56.222                             : :Chapter 19
  139. 01:58:37.985                             : :Chapter 20
复制代码

复制代码

侏罗纪天下2/侏罗纪天下:殒落国家 Jurassic.World.Fallen.Kingdom.2018.2160p.BluRay.x265.10bit.SDR.DTS-X.7.1-SWTYBLZ 17.88GB-2.png 侏罗纪天下2/侏罗纪天下:殒落国家 Jurassic.World.Fallen.Kingdom.2018.2160p.BluRay.x265.10bit.SDR.DTS-X.7.1-SWTYBLZ 17.88GB-3.png 侏罗纪天下2/侏罗纪天下:殒落国家 Jurassic.World.Fallen.Kingdom.2018.2160p.BluRay.x265.10bit.SDR.DTS-X.7.1-SWTYBLZ 17.88GB-4.png 侏罗纪天下2/侏罗纪天下:殒落国家 Jurassic.World.Fallen.Kingdom.2018.2160p.BluRay.x265.10bit.SDR.DTS-X.7.1-SWTYBLZ 17.88GB-5.png 侏罗纪天下2/侏罗纪天下:殒落国家 Jurassic.World.Fallen.Kingdom.2018.2160p.BluRay.x265.10bit.SDR.DTS-X.7.1-SWTYBLZ 17.88GB-6.png 侏罗纪天下2/侏罗纪天下:殒落国家 Jurassic.World.Fallen.Kingdom.2018.2160p.BluRay.x265.10bit.SDR.DTS-X.7.1-SWTYBLZ 17.88GB-7.png 侏罗纪天下2/侏罗纪天下:殒落国家 Jurassic.World.Fallen.Kingdom.2018.2160p.BluRay.x265.10bit.SDR.DTS-X.7.1-SWTYBLZ 17.88GB-8.png





回复

使用道具 举报

蓝光币
84
发表于 2018-9-16 11:47:24 | 显示全部楼层
4K4K4K4K4K4K4K4K4K4K4K4K4K4K4K4K喜欢
回复 支持 反对

使用道具 举报

蓝光币
66
发表于 2018-9-16 12:25:23 | 显示全部楼层
非常感谢楼猪分享~
回复 支持 反对

使用道具 举报

蓝光币
641
发表于 2018-11-12 11:05:08 | 显示全部楼层
看到这帖子真是高兴!
回复 支持 反对

使用道具 举报

蓝光币
641
发表于 2018-11-12 19:22:17 | 显示全部楼层
真是难得给力的帖子啊。
回复 支持 反对

使用道具 举报

蓝光币
641
发表于 2019-9-28 17:11:57 | 显示全部楼层

既然你诚信诚意的推荐了,那我就勉为其难的看看吧!蓝光电影网不走平凡路。
回复 支持 反对

使用道具 举报

蓝光币
641
发表于 2019-9-29 23:59:56 | 显示全部楼层

这个帖子不回对不起自己!我想我是一天也不能离开蓝光电影网
回复 支持 反对

使用道具 举报

蓝光币
0
发表于 2021-8-1 21:20:53 | 显示全部楼层
给力的帖子
回复 支持 反对

使用道具 举报

懒得打字嘛,点击右侧快捷回复 【右侧内容,后台自定义】
您需要登录后才可以回帖 登录 | 立即加入

本版积分规则

Archiver|小黑屋| 蓝光电影网 |网站地图

Copyright © 2021 Comsenz Inc. Powered by 蓝光电影网

蓝光电影网

本站内容由用户自主分享和转载自互联网,转载目的在于传递更多信息,并不代表本网赞同其观点和对其真实性负责。

如有侵权、违反国家法律政策行为,请联系我们,我们会第一时间及时清除和处理!

举报反馈邮箱:[email protected]

快速回复 返回顶部 返回列表